<?xml version="1.0" standalone="no"?>
<!DOCTYPE svg PUBLIC "-//W3C//DTD SVG 1.1//EN" "http://www.w3.org/Graphics/SVG/1.1/DTD/svg11.dtd" >
<svg xmlns="http://www.w3.org/2000/svg">
<metadata>Generated by IcoMoon</metadata>
<defs>
<font id="ionicons" horiz-adv-x="1024">
<font-face units-per-em="1024" ascent="896" descent="-128" />
<missing-glyph horiz-adv-x="1024" />
<glyph unicode="&#x20;" horiz-adv-x="0" d="" />
<glyph unicode="&#xe900;" glyph-name="accessibility" d="M512 672c-61.856 0-112 50.144-112 112s50.144 112 112 112c61.856 0 112-50.144 112-112v0c-0.068-61.828-50.172-111.932-111.993-112h-0.007zM864 670.4l-0.9-0.24-0.84-0.26c-2-0.56-4-1.16-6-1.78-37.22-10.92-217.86-61.84-345.12-61.84-118.26 0-282.56 44-335.12 58.94-4.186 1.701-9.515 3.465-14.968 4.925l-1.032 0.235c-38 10-64-28.6-64-63.88 0-34.94 31.4-51.58 63.1-63.52v-0.56l190.44-59.48c19.46-7.46 24.66-15.080 27.2-21.68 8.26-21.18 1.66-63.12-0.68-77.76l-11.6-90-64.38-352.38q-0.3-1.44-0.54-2.94l-0.46-2.54c-4.64-32.3 19.080-63.64 64-63.64 39.2 0 56.5 27.060 64 63.88v0s56 315.14 84 315.14 85.68-315.14 85.68-315.14v0c7.5-36.82 24.8-63.88 64-63.88 45.040 0 68.76 31.48 64 63.88-0.42 2.76-0.92 5.48-1.52 8.12l-65.26 349.46-11.58 90c-8.38 52.42-1.64 69.74 0.64 73.8 0.055 0.085 0.109 0.183 0.154 0.286l0.006 0.014c2.16 4 12 12.96 34.96 21.58l178.56 62.42c1.338 0.356 2.417 0.712 3.471 1.118l-0.231-0.078c32 12 64 28.6 64 63.86s-25.98 73.92-63.98 63.94z" />
<glyph unicode="&#xe901;" glyph-name="accessibility-outline" d="M512 896c-61.477 0-112-50.523-112-112s50.523-112 112-112c61.477 0 112 50.523 112 112s-50.523 112-112 112zM512 832c26.889 0 48-21.111 48-48s-21.111-48-48-48c-26.889 0-48 21.111-48 48s21.111 48 48 48zM847.852 671.879c-6.755-0.121-13.621-1.077-20.418-2.965-0.961-0.266-1.685-0.502-2.398-0.763l0.222 0.071c0 0-172.076-60.145-313.258-60.145-141.142 0-315.324 60.449-315.324 60.449-0.572 0.218-1.382 0.476-2.205 0.701l-0.225 0.053c-49.244 13.132-101.34-27.267-98.191-80.801 0.023-0.185 0.024-0.195 0.026-0.204l-0.022 0.177c1.307-21.903 12.784-41.142 26.527-53.102s29.044-18.481 43.293-23.23c-0.137 0.035-0.047 0.006 0.043-0.023l0.227-0.063 184.020-59.547c16.464-6.261 23.626-11.815 27.434-21.695 0.086-0.255 0.099-0.29 0.112-0.325l-0.073 0.22c4.874-12.518 4.736-43.893-0.738-78.176l-11.539-57.965-74.586-326.82c-10.763-44.482 20.14-86.771 64.512-94.527 21.455-3.751 43.184 2.153 59.043 13.957s26.484 28.538 32.223 46.973l65.488 202.406 65.59-202.43c11.334-37.156 48.483-68.458 91.52-60.902 42.837 7.521 73.953 49.575 64.566 93.66-0.073 0.367-0.109 0.521-0.145 0.674l0.043-0.217-74.719 327.367-11.531 57.898c-5.378 33.745-2.95 67.944 0.574 74.258-0.029-0.064 0.024 0.031 0.077 0.126l0.083 0.163c1.656 3.040 21.561 16.602 35.098 21.688l175.711 63.715c0.228 0.079 0.238 0.083 0.248 0.087l-0.217-0.075c13.679 4.977 28.805 10.341 43.199 22.242s25.859 33.244 25.859 55.711c0 23.444-9.089 46.218-27.098 62.422-13.507 12.153-32.785 19.319-53.051 18.957zM849.977 608.359c4.344 0.44 5.878-0.997 8.121-3.016 2.991-2.691 5.902-8.708 5.902-14.844 0-5.953 0.466-3.818-2.641-6.387s-11.98-6.939-24.301-11.422l-175.969-63.809c-0.328-0.113-0.436-0.154-0.543-0.196l0.218 0.075c-18.434-6.913-50.417-17.319-68.773-50.871-20.371-36.634-13.949-77.341-7.789-115.703 0.094-0.589 0.169-0.987 0.251-1.383l-0.036 0.208 11.797-59.262c0.097-0.502 0.162-0.796 0.231-1.088l-0.043 0.217 74.719-327.355c1.805-8.509-3.477-15.607-13.035-17.285-9.363-1.644-15.052 2.815-19.238 16.539-0.115 0.403-0.171 0.579-0.228 0.754l0.064-0.226-75.121 231.859c-0.071 0.232-0.074 0.24-0.076 0.248l0.068-0.224c-3.37 10.37-6.354 20.859-8.953 31.469-0.085 0.184-0.087 0.187-0.088 0.19l0.084-0.182-11.52 46.961c-3.551 14.096-16.115 24.364-31.078 24.364-14.969 0-27.537-10.277-31.035-24.159l-0.047-0.221-10.602-43.301c0.034 0.196 0.031 0.183 0.029 0.17l-0.037-0.209c-3.173-13.031-6.824-25.919-10.953-38.672 0-0.001 0-0.003 0-0.004s0-0.003 0-0.004v0l-73.801-228.098c0.028 0.113-0.009 0-0.046-0.113l-0.063-0.226c-2.261-7.265-6.137-12.281-9.328-14.656s-5.064-3.083-9.809-2.254c-8.028 1.403-14.325 12.315-13.328 16.434-0.014-0.087 0.020 0.048 0.053 0.184l0.045 0.219 74.781 327.66c0.026 0.077 0.089 0.371 0.149 0.666l0.035 0.205 11.801 59.262c0.046 0.19 0.119 0.589 0.186 0.99l0.025 0.186c6.072 37.814 11.128 76.11-2.762 111.82-12.17 31.508-39.75 49.175-64.941 58.676-0.254 0.108-0.732 0.279-1.215 0.439l-0.226 0.065-184.82 59.801c-9.735 3.249-17.635 7.425-21.492 10.781-3.851 3.351-4.379 4.067-4.652 8.609v0.004c-0.842 14.338 6.941 17.964 17.555 15.23 6.213-2.222 178.497-63.395 334.5-63.395 156.282 0 327.35 61.248 332.828 63.223 2.056 0.559 3.771 0.919 5.148 1.059z" />
<glyph unicode="&#xe902;" glyph-name="accessibility-sharp" d="M896 672c-133.64-35.84-239.1-64-384-64s-250.36 28.16-384 64l-32-102c96-41.060 193.42-70.32 294.4-106.4l-102.4-559.6 112.8-32 91.2 352h40l91.2-352 112.8 32-102.4 559.6c100.92 32.54 198.4 65.34 294.4 104.4zM512 672c-61.856 0-112 50.144-112 112s50.144 112 112 112c61.856 0 112-50.144 112-112v0c-0.068-61.828-50.172-111.932-111.993-112h-0.007z" />
<glyph unicode="&#xe903;" glyph-name="add" d="M512 704c-17.673 0-32-14.327-32-32v0-576c0-17.673 14.327-32 32-32v0c17.673 0 32 14.327 32 32v0 576c0 17.673-14.327 32-32 32v0zM224 416c-17.673 0-32-14.327-32-32v0c0-17.673 14.327-32 32-32v0h576c17.673 0 32 14.327 32 32v0c0 17.673-14.327 32-32 32v0z" />
<glyph unicode="&#xe904;" glyph-name="add-circle" d="M512 800c-229.38 0-416-186.62-416-416s186.62-416 416-416 416 186.62 416 416-186.62 416-416 416zM672 352h-128v-128c0-17.673-14.327-32-32-32s-32 14.327-32 32v0 128h-128c-17.673 0-32 14.327-32 32s14.327 32 32 32v0h128v128c0 17.673 14.327 32 32 32s32-14.327 32-32v0-128h128c17.673 0 32-14.327 32-32s-14.327-32-32-32v0z" />
<glyph unicode="&#xe905;" glyph-name="add-circle-outline" d="M512 800c-229.308 0-416-186.692-416-416s186.692-416 416-416c229.308 0 416 186.692 416 416s-186.692 416-416 416zM512 736c194.692 0 352-157.308 352-352s-157.308-352-352-352c-194.692 0-352 157.308-352 352s157.308 352 352 352zM512 576c-17.673 0-32-14.327-32-32v0-320c0-17.673 14.327-32 32-32v0c17.673 0 32 14.327 32 32v0 320c0 17.673-14.327 32-32 32v0zM352 416c-17.673 0-32-14.327-32-32v0c0-17.673 14.327-32 32-32v0h320c17.673 0 32 14.327 32 32v0c0 17.673-14.327 32-32 32v0z" />
<glyph unicode="&#xe906;" glyph-name="add-circle-sharp" d="M512 800c-229.38 0-416-186.62-416-416s186.62-416 416-416 416 186.62 416 416-186.62 416-416 416zM704 352h-160v-160h-64v160h-160v64h160v160h64v-160h160z" />
<glyph unicode="&#xe907;" glyph-name="add-outline" d="M512 704c-17.673 0-32-14.327-32-32v0-576c0-17.673 14.327-32 32-32v0c17.673 0 32 14.327 32 32v0 576c0 17.673-14.327 32-32 32v0zM224 416c-17.673 0-32-14.327-32-32v0c0-17.673 14.327-32 32-32v0h576c17.673 0 32 14.327 32 32v0c0 17.673-14.327 32-32 32v0z" />
<glyph unicode="&#xe908;" glyph-name="add-sharp" d="M480 704v-640h64v640zM192 416v-64h640v64h-608z" />
<glyph unicode="&#xe909;" glyph-name="airplane" d="M373.24-32h-53.24c-17.669 0.006-31.989 14.331-31.989 32 0 4.784 1.050 9.323 2.932 13.398l-0.082-0.198 128.92 284.5-193.58 4.3-70.6-85.54c-13.46-16.92-24.2-24.46-51.6-24.46h-35.84c-0.339-0.012-0.737-0.018-1.136-0.018-11.52 0-21.752 5.515-28.199 14.049l-0.065 0.089c-4.76 6.42-9.44 17.3-4.88 32.82l39.64 142c0.3 1.060 0.66 2.12 1.060 3.16 0.010 0.045 0.015 0.097 0.015 0.15s-0.005 0.105-0.016 0.155l0.001-0.005c-0.347 0.831-0.709 1.889-1.010 2.972l-0.050 0.208-39.68 142.9c-4.3 15.22 0.4 25.86 5.12 32.12 6.208 8.176 15.934 13.402 26.881 13.402 0.112 0 0.224-0.001 0.336-0.002h37.823c20.46 0 40.32-9.18 52-24l69.14-84.1 194.64 2.88-128.88 284c-1.805 3.883-2.858 8.428-2.858 13.22 0 17.659 14.303 31.976 31.956 32h53.822c15.751-0.326 29.671-7.887 38.614-19.483l0.086-0.117 250.1-304 115.54 3.040c8.46 0.46 31.9 0.62 37.32 0.62 110.52-0.060 176.52-35.94 176.52-96.060 0-18.92-7.56-54-58.14-76.32-29.86-13.2-69.7-19.88-118.42-19.88-5.36 0-28.74 0.16-37.32 0.62l-115.52 3.080-250.72-304c-9.034-11.659-22.927-19.18-38.588-19.499l-0.052-0.001z" />
<glyph unicode="&#xe90a;" glyph-name="airplane-outline" d="M320 800c-17.673-0.002-31.999-14.33-31.999-32.003 0-4.788 1.052-9.331 2.937-13.41l-0.082 0.198 128.816-284.102-194.645-2.879-68.762 83.605c-14.391 18.708-33.445 24.488-52.387 24.488h-37.719c-5.648 0-14.542-1.66-21.973-7.887s-10.771-15.136-11.637-20.762c-1.722-11.19 0.621-14.54 1.336-16.977 0.004-0.014 0.012-0.045 0.016-0.059l39.605-142.578c0.356-1.285 0.711-2.322 1.115-3.333l-0.076 0.216c0.059-0.15 0.059-0.288 0-0.438-0.325-0.786-0.676-1.812-0.976-2.86l-0.055-0.226-39.559-141.824c-1.195-3.829-6.073-10.993 1.141-26.871 3.631-7.991 11.965-14.975 18.434-17.586s11.039-2.715 14.629-2.715h35.84c9.529 0 19.667 0.153 30.863 5.828s16.651 13.372 21.020 18.875l-0.379-0.465 70.781 85.801 193.516-4.328-128.945-284.5c-1.802-3.879-2.853-8.421-2.853-13.208 0-17.673 14.325-32 31.997-32.003h53.282c0.655 0 1.304 0.020 1.948 0.059l-0.089-0.004c14.588 0.85 28.121 8.075 36.945 19.723l-0.82-1.039 251.34 304.762 114.918-3.043c10.356-0.628 30.492-0.656 37.938-0.656 47.202 0 86.897 5.973 118.395 19.879s58.145 41.405 58.145 76.32c0 34.852-26.608 62.385-58.094 76.238s-71.165 19.762-118.465 19.762c-7.427 0-27.544-0.010-37.992-0.66l1.152 0.051-116.035-3.043-249.934 303.82c-8.825 11.682-22.383 18.929-37 19.777-0.553 0.034-1.199 0.054-1.851 0.055h-0.001zM373.965 726.477l247.582-301.004-2.883 4.125c6.766-11.524 19.595-18.356 32.934-17.539l-1.121-0.047 129.801 3.398c0.446 0.012 0.847 0.030 1.246 0.056l-0.094-0.005c2.392 0.149 27.839 0.539 34.012 0.539 41.5 0 74.098-6.163 92.691-14.344s19.867-12.648 19.867-17.656c0-4.944-1.355-9.545-19.992-17.773s-51.209-14.426-92.547-14.426c-6.194 0-31.223 0.367-34.066 0.539-0.279 0.020-0.655 0.038-1.033 0.050l-0.049 0.001-127.801 3.398c-0.252 0.007-0.551 0.012-0.85 0.012h-0.001c-5.328 0-7.409-0.483-11.516-1.629s-10.668 0.697-20.695-14.73l2.145 2.918-247.074-299.586 120.266 265.336c0.050 0.088 0.179 0.376 0.303 0.667l0.079 0.208c9.739 23.314-8.4 51.234-33.66 51.809-0.002 0-0.004 0-0.006 0s-0.004 0-0.006 0v0l-241.359 5.398c-0.001 0-0.001 0-0.002 0s-0.001 0-0.002 0v0c-15.119 0.336-29.594-6.462-38.988-18.313l0.391 0.484-75.398-91.398c-0.083-0.098-0.207-0.251-0.329-0.404l-0.050-0.064c-0.254-0.32-0.151-0.168-0.371-0.438-0.131-0.004-0.135-0.008-0.277-0.012l30.055 107.754-1.031-3.082c5.94 15.15 5.94 32.014 0 47.164l1.039-3.117-29.531 106.305c0.769-0.366 1.209-0.388-0.105 1.32 0.262-0.34 0.475-0.604 0.691-0.865l-0.043 0.053 73.48-89.355c9.415-12.074 24.102-18.971 39.406-18.508l-0.496-0.012 241.066 3.648c26.353-1.519 46.57 28.453 35.293 52.32l0.211-0.457zM95.418 547.863c0 0 0.444-0.694 0.703-2.52l-0.629 2.262c-0.081 0.312-0.107 0.398-0.133 0.484l0.058-0.227zM668.441 298.574c-0.525-0.591-1.145-1.503-1.629-1.973zM96.609 225.57c-0.168-3.43-1.374-4.886-1.359-4.836 0.008-0.005 0.075 0.218 0.14 0.442l0.056 0.226z" />
<glyph unicode="&#xe90b;" glyph-name="airplane-sharp" d="M815.44 480c-5.44 0-28.88-0.16-37.34-0.62l-115.54-3.040-266.44 323.66h-125.62l149.18-329.22-194.62-2.88-88.56 108.1h-104.22l41.22-188.36c0.3-1.080 0.66-2.14 1.060-3.18 0.014-0.045 0.022-0.097 0.022-0.15s-0.008-0.105-0.023-0.154l0.001 0.004c-0.341-0.817-0.703-1.868-1.007-2.943l-0.053-0.217-41.78-189h103.56l90.9 110 193.54-4.34-149.24-329.66h126l266 323.5 115.54-3.080c8.58-0.46 32-0.62 37.32-0.62 48.7 0 88.54 6.68 118.42 19.88 50.68 22.32 58.24 57.4 58.24 76.32 0 60.12-66 96-176.56 96zM672.86 304.2v0z" />
<glyph unicode="&#xe90c;" glyph-name="alarm" d="M307.18 675.080c7.844 7.764 12.701 18.533 12.701 30.436 0 12.965-5.762 24.585-14.865 32.437l-0.055 0.047c-21.649 18.563-49.971 29.896-80.938 30h-0.022l-6.54-0.18h-0.96c-67.7-4.12-120.5-62.92-120.36-133.82 0-38 16-58.12 28.64-74.22 7.012-8.842 17.443-14.709 29.263-15.592l0.137-0.008c0.52 0 1.4-0.1 4-0.1 10.808 0.016 20.56 4.529 27.487 11.766l0.013 0.014zM807.58 767.78l-6.54 0.2h-1.040c-31.018-0.083-59.371-11.421-81.209-30.141l0.169 0.141c-9.146-7.898-14.899-19.51-14.899-32.465 0-11.893 4.848-22.653 12.676-30.412l0.003-0.003 121.54-119.3c6.954-7.277 16.737-11.8 27.575-11.8 0.002 0 0.003 0 0.005 0v0c2.56 0 3.44 0 4 0.1 11.949 0.897 22.372 6.763 29.315 15.515l0.065 0.085c12.72 16.1 28.56 36.16 28.64 74.22 0.12 70.98-52.68 129.78-120.3 133.86zM512.14 704c-194 0-352-157.9-352-352 0-0.087 0-0.19 0-0.293 0-85.82 30.847-164.436 82.059-225.364l-0.439 0.537-72.24-72.26c-5.986-5.821-9.701-13.952-9.701-22.951 0-17.673 14.327-32 32-32 9.003 0 17.138 3.718 22.953 9.703l0.007 0.008 72.24 72.24c60.494-50.777 139.205-81.622 225.12-81.622s164.626 30.845 225.663 82.065l-0.543-0.443 72.26-72.24c5.822-5.992 13.957-9.711 22.961-9.711 17.673 0 32 14.327 32 32 0 8.999-3.714 17.13-9.693 22.944l-72.267 72.267c50.772 60.376 81.62 138.978 81.62 224.784 0 0.118 0 0.236 0 0.355v-0.019c0 194-157.9 352-352 352zM544.14 352c0-17.673-14.327-32-32-32v0h-160c-17.673 0-32 14.327-32 32s14.327 32 32 32v0h128v192c0 17.673 14.327 32 32 32s32-14.327 32-32v0z" />
<glyph unicode="&#xe90d;" glyph-name="alarm-outline" d="M519.895 703.895c-94.236 2.030-187.479-33.838-256.645-103.004-100.605-100.605-130.757-252.151-76.313-383.598s182.925-217.293 325.203-217.293c194.025 0 352 157.975 352 352 0 142.279-85.846 270.758-217.293 325.203-41.077 17.014-84.119 25.769-126.953 26.691zM518.441 639.965c35.036-0.768 70.258-7.95 103.914-21.891 107.7-44.609 177.785-149.498 177.785-266.074 0-159.437-128.563-288-288-288-116.577 0-221.465 70.085-266.074 177.785s-19.995 231.419 62.438 313.852c56.673 56.673 132.859 86.018 209.937 84.328zM223.617 768.004l-6.617-0.191-0.504-0.031c-68.685-4.14-120.508-64.257-120.352-133.816 0.011-33.737 15.822-57.978 28.445-73.977 7.048-9.142 17.651-14.93 29.16-15.879l1.313-0.109h3.363l0.285 0.004c11.932 0.214 23.154 6 30.246 15.598l-3.313-3.813 121.871 119.711c8.305 8.4 12.765 19.906 12.313 31.707-0.436 11.75-5.733 22.84-14.617 30.547l-0.164 0.141c-22.544 19.291-51.224 29.963-80.895 30.105zM224.004 703.984c6.205-0.046 12.26-1.196 18.082-3.047l-80.934-79.492c-0.64 3.203-1.012 6.97-1.012 12.555v0.082c-0.099 38.368 26.635 67.702 60.070 69.793zM800.383 768.004l-0.535-0.004c-29.671-0.142-58.351-10.814-80.895-30.105l-0.164-0.141c-8.884-7.707-14.181-18.797-14.617-30.547-0.453-11.801 4.007-23.307 12.313-31.707l0.168-0.168 121.707-119.523-3.316 3.816c7.092-9.598 18.314-15.388 30.246-15.602l0.285-0.004h3.332l1.285 0.105c11.505 0.927 22.118 6.689 29.184 15.813 12.629 15.998 28.469 40.259 28.48 74.027 0.157 69.56-51.666 129.677-120.352 133.817l-0.504 0.031zM799.996 703.984l3.793-0.109c33.435-2.091 60.17-31.425 60.070-69.793v-0.082c0-5.578-0.37-9.342-1.008-12.543l-80.934 79.48c5.821 1.85 11.874 3.001 18.078 3.047zM512.141 608c-17.673 0-32-14.327-32-32v0-192h-128c-17.673 0-32-14.327-32-32v0c0-17.673 14.327-32 32-32v0h160c17.672 0.002 31.998 14.328 32 32v0 224c0 17.673-14.327 32-32 32v0zM743.859 142.91c-5.643-1.542-10.486-4.421-14.348-8.281v0c-5.792-5.791-9.374-13.792-9.374-22.629s3.582-16.838 9.374-22.629l80-80c5.791-5.791 13.791-9.372 22.627-9.372s16.836 3.582 22.627 9.372v0c5.792 5.791 9.374 13.792 9.374 22.629s-3.582 16.838-9.374 22.629l-80 80c-5.791 5.79-13.79 9.371-22.626 9.371-2.945 0-5.797-0.398-8.505-1.143l0.225 0.053zM263.859 142.91c-5.643-1.542-10.486-4.421-14.348-8.281l-80-80c-5.792-5.791-9.374-13.792-9.374-22.629s3.582-16.838 9.374-22.629v0c5.791-5.791 13.791-9.372 22.627-9.372s16.836 3.582 22.627 9.372l80 80c5.792 5.791 9.374 13.792 9.374 22.629s-3.582 16.838-9.374 22.629v0c-5.791 5.79-13.79 9.371-22.626 9.371-2.945 0-5.797-0.398-8.505-1.143l0.225 0.053z" />
<glyph unicode="&#xe90e;" glyph-name="alarm-sharp" d="M807.58 767.78l-6.54 0.2h-1.040c-29.46 0-57.1-11.82-81.040-30s-30.96-33.98-30.96-33.98l176-172s22.5 11.42 35.22 27.7 28.56 36.16 28.64 74.22c0.14 70.98-52.66 129.78-120.28 133.86zM216.42 767.78l6.54 0.2h1.040c29.46 0 57.1-11.82 81.040-30s30.96-33.98 30.96-33.98l-176-172s-22.5 11.42-35.22 27.7-28.56 36.16-28.64 74.3c-0.14 70.9 52.66 129.7 120.28 133.78zM782.6 126.8c-0.019 0.021-0.031 0.049-0.031 0.080s0.012 0.059 0.031 0.080v0c67.4 81.040 99.4 192.56 71.4 310.58-27.28 115.040-145.34 231.38-260.68 257.32-229.32 51.56-433.18-122.28-433.18-342.86 0-0.102 0-0.222 0-0.342 0-85.769 30.824-164.338 81.999-225.234l-0.439 0.536c0.019-0.021 0.031-0.049 0.031-0.080s-0.012-0.059-0.031-0.080v0l-95.7-94.8c-0.019-0.021-0.031-0.049-0.031-0.080s0.012-0.059 0.031-0.080v0l46-45.020c0.021-0.019 0.049-0.031 0.080-0.031s0.059 0.012 0.080 0.031v0l94.86 94.74c0.021 0.019 0.049 0.031 0.080 0.031s0.059-0.012 0.080-0.031v0c60.484-50.738 139.168-81.558 225.050-81.558s164.566 30.82 225.595 82.003l-0.545-0.445ch0.14l94.58-94.74c0.021-0.019 0.049-0.031 0.080-0.031s0.059 0.012 0.080 0.031v0l47.84 45.18zM544.14 320h-224ch-0.14v63.8cl0.1 0.1h160cv0.1 224h64z" />
<glyph unicode="&#xe90f;" glyph-name="albums" d="M736 704h-448c-17.673 0-32 14.327-32 32s14.327 32 32 32v0h448c17.673 0 32-14.327 32-32s-14.327-32-32-32v0zM800 608h-576c-17.673 0-32 14.327-32 32s14.327 32 32 32v0h576c17.673 0 32-14.327 32-32s-14.327-32-32-32v0zM838.26 0h-652.52c-49.539 0.057-89.683 40.201-89.74 89.734v396.526c0.057 49.539 40.201 89.683 89.734 89.74h652.526c49.539-0.057 89.683-40.201 89.74-89.734v-396.526c-0.057-49.539-40.201-89.683-89.734-89.74h-0.006z" />
<glyph unicode="&#xe910;" glyph-name="albums-outline" d="M185.738 576c-49.162 0-89.738-40.576-89.738-89.738v-396.523c0-49.162 40.576-89.738 89.738-89.738h652.523c49.162 0 89.738 40.576 89.738 89.738v396.523c0 49.162-40.576 89.738-89.738 89.738zM185.738 512h652.523c14.813 0 25.738-10.925 25.738-25.738v-396.523c0-14.813-10.925-25.738-25.738-25.738h-652.523c-14.813 0-25.738 10.925-25.738 25.738v396.523c0 14.813 10.925 25.738 25.738 25.738zM288 736h448zM288 768c-17.673 0-32-14.327-32-32v0c0-17.673 14.327-32 32-32v0h448c17.673 0 32 14.327 32 32v0c0 17.673-14.327 32-32 32v0zM224 640h576zM224 672c-17.673 0-32-14.327-32-32v0c0-17.673 14.327-32 32-32v0h576c17.673 0 32 14.327 32 32v0c0 17.673-14.327 32-32 32v0z" />
<glyph unicode="&#xe911;" glyph-name="albums-sharp" d="M256 768h512v-64h-512v64zM192 672h640v-64h-640v64zM928 0h-832v576h832z" />
<glyph unicode="&#xe912;" glyph-name="alert" d="M512 768c-35.451 0-66.475-28.229-63.93-66.145l-0.047 0.961 16-432-0.024 1.184c0-26.131 21.869-48 48-48s48 21.869 48 48l-0.023-1.184 16 432-0.047-0.961c2.545 37.916-28.479 66.145-63.93 66.145zM511.93 706.145c0.018-0.278 0.047-0.168 0.070-0.387 0.024 0.219 0.052 0.108 0.070 0.387-0.009-0.121-0.020-0.334-0.029-0.548l-0.002-0.066c0.257-1.894 0.592-1.597-0.020-1.543l-0.020 0.563-0.020-0.563c-0.612-0.054-0.277-0.351-0.020 1.543-0.011 0.279-0.023 0.492-0.036 0.705l0.005-0.092zM512 128c-34.967 0-64-29.033-64-64s29.033-64 64-64c34.967 0 64 29.033 64 64s-29.033 64-64 64z" />
<glyph unicode="&#xe913;" glyph-name="alert-circle" d="M512 800c-229.38 0-416-186.62-416-416s186.62-416 416-416 416 186.62 416 416-186.62 416-416 416zM512 160.18c-22.091 0-40 17.909-40 40s17.909 40 40 40c22.091 0 40-17.909 40-40v0c0-22.091-17.909-40-40-40v0zM555.44 562.48l-11.48-244c0-17.673-14.327-32-32-32s-32 14.327-32 32v0l-11.48 243.88v0.1c-0.025 0.556-0.040 1.209-0.040 1.865 0 24.013 19.467 43.48 43.48 43.48s43.48-19.467 43.48-43.48c0-0.656-0.015-1.308-0.043-1.957l0.003 0.092z" />
<glyph unicode="&#xe914;" glyph-name="alert-circle-outline" d="M512 800c-229.308 0-416-186.692-416-416s186.692-416 416-416c229.308 0 416 186.692 416 416s-186.692 416-416 416zM512 736c194.692 0 352-157.308 352-352s-157.308-352-352-352c-194.692 0-352 157.308-352 352s157.308 352 352 352zM511.566 607.898c-24.196-0.235-44.109-21.276-43.012-45.449 0-0.008 0-0.018 0-0.027s0-0.019 0-0.029v0.002l11.48-243.898c0.859-16.987 14.842-30.435 31.965-30.435 17.125 0 31.108 13.45 31.962 30.362l0.003 0.076 11.461 243.898c0 0.008 0 0.016 0 0.025s0 0.018 0 0.027v-0.001c1.111 24.476-19.349 45.681-43.848 45.449zM512 160.18c-22.091 0-40 17.909-40 40s17.909 40 40 40c22.091 0 40-17.909 40-40v0c0-22.091-17.909-40-40-40v0z" />
<glyph unicode="&#xe915;" glyph-name="alert-circle-sharp" d="M512 800c-229.38 0-416-186.62-416-416s186.62-416 416-416 416 186.62 416 416-186.62 416-416 416zM552 160.18h-80v80h80zM544 288h-64l-12 320h88z" />
<glyph unicode="&#xe916;" glyph-name="alert-outline" d="M512 768c-35.451 0-66.475-28.229-63.93-66.145l-0.047 0.961 16-432-0.024 1.184c0-26.131 21.869-48 48-48s48 21.869 48 48l-0.023-1.184 16 432-0.047-0.961c2.545 37.916-28.479 66.145-63.93 66.145zM511.93 706.145c0.018-0.278 0.047-0.168 0.070-0.387 0.024 0.219 0.052 0.108 0.070 0.387-0.009-0.121-0.020-0.334-0.029-0.548l-0.002-0.066c0.257-1.894 0.592-1.597-0.020-1.543l-0.020 0.563-0.020-0.563c-0.612-0.054-0.277-0.351-0.020 1.543-0.011 0.279-0.023 0.492-0.036 0.705l0.005-0.092zM512 128c-34.967 0-64-29.033-64-64s29.033-64 64-64c34.967 0 64 29.033 64 64s-29.033 64-64 64z" />
<glyph unicode="&#xe917;" glyph-name="alert-sharp" d="M446.914 768l1.105-33.066 17.031-510.934h93.898l18.137 544zM448 128v-128h128v128z" />
<glyph unicode="&#xe918;" glyph-name="american-football" d="M244.12 651.88c-88.74-88.74-133.42-201.22-156-290.56l401.2-401.12c89.34 22.5 201.82 67.18 290.56 156s133.42 201.22 156 290.56l-401.2 401.040c-89.34-22.5-201.82-67.18-290.56-155.92zM757.58 138.44v0zM601.3 518l44.7 44.58c5.581 5.078 13.031 8.187 21.207 8.187 17.43 0 31.56-14.13 31.56-31.56 0-8.176-3.109-15.627-8.21-21.233l0.023 0.026-44.58-44.7 22.32-22.34c5.712-5.712 9.245-13.603 9.245-22.32 0-17.433-14.132-31.565-31.565-31.565-8.717 0-16.608 3.533-22.32 9.245v0l-22.32 22.32-44.72-44.64 22.32-22.32c5.712-5.712 9.245-13.603 9.245-22.32 0-17.433-14.132-31.565-31.565-31.565-8.717 0-16.608 3.533-22.32 9.245v0l-22.32 22.32-44.64-44.66 22.32-22.32c5.712-5.712 9.245-13.603 9.245-22.32 0-17.433-14.132-31.565-31.565-31.565-8.717 0-16.608 3.533-22.32 9.245v0l-22.34 22.26-44.7-44.58c-5.581-5.078-13.031-8.187-21.207-8.187-17.43 0-31.56 14.13-31.56 31.56 0 8.176 3.109 15.627 8.21 21.233l-0.023-0.026 44.58 44.7-22.32 22.34c-5.712 5.712-9.245 13.603-9.245 22.32 0 17.433 14.132 31.565 31.565 31.565 8.717 0 16.608-3.533 22.32-9.245v0l22.32-22.32 44.72 44.64-22.32 22.32c-5.712 5.712-9.245 13.603-9.245 22.32 0 17.433 14.132 31.565 31.565 31.565 8.717 0 16.608-3.533 22.32-9.245v0l22.32-22.32 44.64 44.66-22.32 22.32c-5.712 5.712-9.245 13.603-9.245 22.32 0 17.433 14.132 31.565 31.565 31.565 8.717 0 16.608-3.533 22.32-9.245v0zM953.14 496.74c14.62 109.060 8 240.52-40 288.42s-179.36 54.6-288.42 40c-5.020-0.68-10.32-1.44-15.82-2.3l342-342c0.8 5.56 1.56 10.86 2.24 15.88zM70.86 271.26c-14.62-109.060-8-240.52 40-288.42 33.48-33.5 107.82-46.84 186.82-46.84 35.876 0.060 71.114 2.551 105.625 7.318l-4.045-0.458c5.020 0.68 10.32 1.44 15.82 2.3l-342 342c-0.78-5.58-1.54-10.88-2.22-15.9z" />
<glyph unicode="&#xe919;" glyph-name="american-football-outline" d="M244.090 651.908c-108.456-108.456-178.757-235.23-204.398-355.36s-5.888-236.412 71.277-313.577c77.165-77.165 193.447-96.918 313.577-71.277s246.904 95.942 355.36 204.398c108.456 108.456 178.757 235.23 204.398 355.36s5.888 236.412-71.277 313.577c-77.165 77.165-193.447 96.918-313.577 71.277s-246.904-95.942-355.36-204.398zM289.344 606.653c100.529 100.529 217.864 164.524 323.463 187.063s196.665 4.358 254.964-53.942c58.3-58.3 76.481-149.366 53.942-254.964s-86.534-222.934-187.063-323.463c-100.529-100.529-217.864-164.524-323.463-187.063s-196.665-4.358-254.964 53.942c-58.3 58.3-76.481 149.366-53.942 254.964s86.534 222.934 187.063 323.463zM659.797 570.988c-5.642-1.543-10.483-4.421-14.344-8.281l-312.16-312.16c-5.791-5.791-9.372-13.791-9.372-22.627s3.582-16.836 9.372-22.627v0c5.791-5.791 13.791-9.372 22.627-9.372s16.836 3.582 22.627 9.372l312.16 312.16c5.791 5.791 9.372 13.791 9.372 22.627s-3.582 16.836-9.372 22.627v0c-5.791 5.79-13.791 9.372-22.627 9.372-2.946 0-5.799-0.398-8.508-1.143l0.225 0.053zM459.117 459.508c-5.642-1.543-10.483-4.421-14.344-8.281v0c-5.791-5.791-9.372-13.791-9.372-22.627s3.582-16.836 9.372-22.627l89.199-89.199c5.791-5.791 13.791-9.372 22.627-9.372s16.836 3.582 22.627 9.372v0c5.791 5.791 9.372 13.791 9.372 22.627s-3.582 16.836-9.372 22.627l-89.199 89.199c-5.791 5.79-13.791 9.372-22.627 9.372-2.946 0-5.799-0.398-8.508-1.143l0.225 0.053zM548.316 548.691c-5.642-1.544-10.484-4.424-14.344-8.285v0c-5.791-5.791-9.372-13.791-9.372-22.627s3.582-16.836 9.372-22.627l89.18-89.18c5.791-5.791 13.791-9.372 22.627-9.372s16.836 3.582 22.627 9.372v0c5.791 5.791 9.372 13.791 9.372 22.627s-3.582 16.836-9.372 22.627l-89.18 89.18c-5.791 5.792-13.792 9.375-22.63 9.375-2.945 0-5.797-0.398-8.505-1.143l0.225 0.053zM592.918 816.27c-5.642-1.543-10.483-4.421-14.344-8.281v0c-5.791-5.791-9.372-13.791-9.372-22.627s3.582-16.836 9.372-22.627l312.16-312.16c5.791-5.791 13.791-9.372 22.627-9.372s16.836 3.582 22.627 9.372v0c5.791 5.791 9.372 13.791 9.372 22.627s-3.582 16.836-9.372 22.627l-312.16 312.16c-5.791 5.79-13.791 9.372-22.627 9.372-2.946 0-5.799-0.398-8.508-1.143l0.225 0.053zM102.359 325.711c-5.643-1.543-10.487-4.423-14.348-8.285v0c-5.791-5.791-9.372-13.791-9.372-22.627s3.582-16.836 9.372-22.627l312.16-312.16c5.791-5.791 13.791-9.372 22.627-9.372s16.836 3.582 22.627 9.372v0c5.791 5.791 9.372 13.791 9.372 22.627s-3.582 16.836-9.372 22.627l-312.16 312.16c-5.791 5.792-13.792 9.374-22.629 9.374-2.944 0-5.795-0.397-8.502-1.142l0.225 0.053zM369.938 370.309c-5.642-1.543-10.484-4.421-14.344-8.281v0c-5.791-5.791-9.372-13.791-9.372-22.627s3.582-16.836 9.372-22.627l89.18-89.18c5.791-5.791 13.791-9.372 22.627-9.372s16.836 3.582 22.627 9.372v0c5.791 5.791 9.372 13.791 9.372 22.627s-3.582 16.836-9.372 22.627l-89.18 89.18c-5.791 5.79-13.791 9.372-22.627 9.372-2.946 0-5.799-0.398-8.508-1.143l0.225 0.053z" />
<glyph unicode="&#xe91a;" glyph-name="american-football-sharp" d="M241.8 654.98c-89.5-89.12-134.58-202.1-157.28-291.8l404.62-402.88c90.1 22.6 203.56 67.48 293.060 156.6s134.58 202.1 157.28 291.82l-404.62 402.86c-90.1-22.6-203.56-67.58-293.060-156.6zM759.8 139.32v0zM669.8 587.72l45.040-44.84-67.56-67.26 45.040-44.84-45.22-44.78-45.1 44.78-44.96-44.78 44.96-44.9-45.020-44.84-44.98 44.84-45.040-44.84 45.040-44.84-45.040-44.84-44.96 44.84-67.56-67.26-45.1 44.84 67.56 67.26-45.040 44.84 45.040 44.9 45.1-44.9 44.96 44.9-44.96 44.78 45.020 44.84 44.98-44.84 45.040 44.84-45.040 44.84 45.040 44.84 44.96-44.84zM956.96 499.18c14.74 109.52-28.96 300.72-28.96 300.72s-192.28 43.76-302.28 29.080c-5.080-0.66-10.42-1.44-16-2.28l344.94-343.42c0.86 5.52 1.62 10.84 2.3 15.9zM67.040 272.7c-14.74-109.52 29.060-304.7 29.060-304.7s120-32 199.72-32c36.19 0.063 71.734 2.569 106.549 7.361l-4.089-0.461c5.080 0.66 10.42 1.44 16 2.3l-344.94 343.4c-0.86-5.52-1.62-10.84-2.3-15.9z" />
<glyph unicode="&#xe91b;" glyph-name="analytics" d="M912 640c-44.174-0.012-79.979-35.824-79.979-80 0-10.509 2.026-20.546 5.71-29.739l-0.191 0.539-168.34-168.34c-8.653 3.506-18.689 5.54-29.2 5.54s-20.547-2.034-29.736-5.731l0.536 0.19-120.34 120.34c3.506 8.669 5.54 18.723 5.54 29.252 0 44.183-35.817 80-80 80s-80-35.817-80-80c0-10.529 2.034-20.583 5.731-29.791l-0.191 0.538-200.34-200.34c-8.659 3.497-18.7 5.525-29.215 5.525-44.183 0-80-35.817-80-80s35.817-80 80-80c44.183 0 80 35.817 80 80 0 10.515-2.029 20.556-5.716 29.753l0.191-0.539 200.34 200.34c8.653-3.506 18.689-5.54 29.2-5.54s20.547 2.034 29.736 5.731l-0.536-0.19 120.34-120.34c-3.506-8.669-5.54-18.723-5.54-29.252 0-44.183 35.817-80 80-80s80 35.817 80 80c0 10.529-2.034 20.583-5.731 29.791l0.191-0.538 168.34 168.34c8.669-3.506 18.723-5.54 29.252-5.54 44.183 0 80 35.817 80 80s-35.817 80-80 80c-0.018 0-0.037 0-0.055 0h0.003z" />
<glyph unicode="&#xe91c;" glyph-name="analytics-outline" d="M855.719 542.91c-5.643-1.542-10.486-4.421-14.348-8.281l-176-176c-5.792-5.791-9.374-13.792-9.374-22.629s3.582-16.838 9.374-22.629v0c5.791-5.792 13.792-9.374 22.629-9.374s16.838 3.582 22.629 9.374l176 176c5.792 5.791 9.374 13.792 9.374 22.629s-3.582 16.838-9.374 22.629v0c-5.791 5.79-13.791 9.372-22.627 9.372-2.946 0-5.799-0.398-8.508-1.143l0.225 0.053zM455.719 494.91c-5.643-1.542-10.486-4.421-14.348-8.281v0c-5.792-5.791-9.374-13.792-9.374-22.629s3.582-16.838 9.374-22.629l128-128c5.791-5.792 13.792-9.374 22.629-9.374s16.838 3.582 22.629 9.374v0c5.792 5.791 9.374 13.792 9.374 22.629s-3.582 16.838-9.374 22.629l-128 128c-5.791 5.79-13.791 9.372-22.627 9.372-2.946 0-5.799-0.398-8.508-1.143l0.225 0.053zM359.719 494.91c-5.643-1.542-10.486-4.421-14.348-8.281l-208-208c-5.792-5.791-9.374-13.792-9.374-22.629s3.582-16.838 9.374-22.629v0c5.791-5.792 13.792-9.374 22.629-9.374s16.838 3.582 22.629 9.374l208 208c5.792 5.791 9.374 13.792 9.374 22.629s-3.582 16.838-9.374 22.629v0c-5.791 5.79-13.791 9.372-22.627 9.372-2.946 0-5.799-0.398-8.508-1.143l0.225 0.053zM912 640c-43.804 0-80-36.196-80-80s36.196-80 80-80c43.804 0 80 36.196 80 80s-36.196 80-80 80zM912 576c9.216 0 16-6.784 16-16s-6.784-16-16-16c-9.216 0-16 6.784-16 16s6.784 16 16 16zM640 368c-43.804 0-80-36.196-80-80s36.196-80 80-80c43.804 0 80 36.196 80 80s-36.196 80-80 80zM640 304c9.216 0 16-6.784 16-16s-6.784-16-16-16c-9.216 0-16 6.784-16 16s6.784 16 16 16zM416 592c-43.804 0-80-36.196-80-80s36.196-80 80-80c43.804 0 80 36.196 80 80s-36.196 80-80 80zM416 528c9.216 0 16-6.784 16-16s-6.784-16-16-16c-9.216 0-16 6.784-16 16s6.784 16 16 16zM112 288c-43.804 0-80-36.196-80-80s36.196-80 80-80c43.804 0 80 36.196 80 80s-36.196 80-80 80zM112 224c9.216 0 16-6.784 16-16s-6.784-16-16-16c-9.216 0-16 6.784-16 16s6.784 16 16 16z" />
<glyph unicode="&#xe91d;" glyph-name="analytics-sharp" d="M900 640c-50.797-0.017-91.97-41.2-91.97-92 0-9.268 1.37-18.215 3.92-26.652l-0.169 0.652-142.74-142.72c-8.654 2.982-18.626 4.703-29 4.703s-20.346-1.722-29.646-4.895l0.646 0.191-105.82 105.82c1.829 6.855 2.88 14.724 2.88 22.839 0 50.81-41.19 92-92 92s-92-41.19-92-92c0-8.115 1.051-15.985 3.023-23.48l-0.143 0.641-176.98-176.86c-7.831 2.405-16.833 3.79-26.158 3.79-50.899 0-92.16-41.261-92.16-92.16s41.261-92.16 92.16-92.16c50.899 0 92.16 41.261 92.16 92.16 0 9.315-1.382 18.307-3.952 26.782l0.17-0.653 174.74 174.72c8.654-2.984 18.626-4.706 29-4.706s20.346 1.723 29.645 4.898l-0.645-0.191 105.84-105.84c-1.829-6.855-2.88-14.724-2.88-22.839 0-50.81 41.19-92 92-92s92 41.19 92 92c0 8.115-1.051 15.985-3.023 23.48l0.143-0.641 144.96 144.88c7.794-2.386 16.753-3.76 26.033-3.76 50.81 0 92 41.19 92 92s-41.19 92-92 92c-0.012 0-0.023 0-0.035 0h0.002z" />
<glyph unicode="&#xe91e;" glyph-name="aperture" d="M501.080 637.66l-135.6 135.6c-79.33-30.734-144.913-82.283-191.98-147.996l-0.86-1.264h322.8c4.412 0.008 7.986 3.587 7.986 8 0 2.211-0.897 4.212-2.346 5.66v0zM335.44 560h-200.18c-24.783-51.595-39.263-112.171-39.263-176.129 0-26.755 2.534-52.919 7.375-78.264l-0.412 2.592 238.12 238.14c1.45 1.448 2.346 3.449 2.346 5.66 0 4.413-3.574 7.992-7.986 8h-0.001zM688 560.56v200.32c-51.583 24.695-112.125 39.12-176.037 39.12-26.781 0-52.969-2.533-78.34-7.372l2.597 0.412 238.12-238.12c1.448-1.45 3.449-2.346 5.66-2.346 4.413 0 7.992 3.574 8 7.986v0.001zM921.040 459.8l-238.12-238.14c-1.45-1.448-2.346-3.449-2.346-5.66 0-4.413 3.574-7.992 7.986-8h200.181c24.783 51.595 39.263 112.171 39.263 176.129 0 26.755-2.534 52.919-7.375 78.264l0.412-2.592zM765.66 394.92l135.66 135.64c-30.653 79.446-82.244 145.118-148.053 192.179l-1.267 0.861v-323.040c0.008-4.412 3.587-7.986 8-7.986 2.211 0 4.212 0.897 5.66 2.346v0zM443.36 212.46c2.87-2.759 6.776-4.459 11.080-4.46h119.32c4.462 0.002 8.497 1.83 11.398 4.778l0.002 0.002 98.36 100c2.844 2.887 4.6 6.852 4.6 11.227 0 0.005 0 0.009 0 0.014v-0.001l-0.12 121.62c-0.002 4.452-1.822 8.479-4.758 11.378l-100.002 98.502c-2.887 2.844-6.852 4.6-11.227 4.6-0.012 0-0.023 0-0.035 0l-121.678-0.12c-4.452-0.002-8.479-1.822-11.378-4.758l-98.502-100.002c-2.844-2.887-4.6-6.852-4.6-11.227 0-0.012 0-0.023 0-0.035v0.002l0.12-121.56c0.001-4.522 1.878-8.606 4.895-11.515l0.005-0.005zM522.92 130.34l135.6-135.6c79.33 30.734 144.913 82.283 191.98 147.996l0.86 1.264h-322.8c-4.412-0.008-7.986-3.587-7.986-8 0-2.211 0.897-4.212 2.346-5.66v0zM336 207.44v-200.32c51.583-24.695 112.125-39.12 176.037-39.12 26.781 0 52.969 2.533 78.34 7.372l-2.597-0.412-238.12 238.12c-1.448 1.45-3.449 2.346-5.66 2.346-4.413 0-7.992-3.574-8-7.986v-0.001zM258.34 373.080l-135.66-135.66c30.659-79.437 82.248-145.101 148.053-192.159l1.267-0.861v323.040c-0.008 4.412-3.587 7.986-8 7.986-2.211 0-4.212-0.897-5.66-2.346v0z" />
<glyph unicode="&#xe91f;" glyph-name="aperture-outline" d="M512 800c-229.308 0-416-186.692-416-416s186.692-416 416-416c229.308 0 416 186.692 416 416s-186.692 416-416 416zM512 736c194.692 0 352-157.308 352-352s-157.308-352-352-352c-194.692 0-352 157.308-352 352s157.308 352 352 352zM720 738.82c-17.673 0-32-14.327-32-32v0-402.82c0-17.673 14.327-32 32-32v0c17.673 0 32 14.327 32 32v0 402.82c0 17.673-14.327 32-32 32v0zM877.977 501.168c-5.642-1.543-10.483-4.421-14.344-8.281l-294.262-294.258c-5.792-5.791-9.374-13.792-9.374-22.629s3.582-16.838 9.374-22.629v0c5.791-5.792 13.792-9.374 22.629-9.374s16.838 3.582 22.629 9.374l294.258 294.262c5.791 5.791 9.372 13.791 9.372 22.627s-3.582 16.836-9.372 22.627v0c-5.791 5.79-13.791 9.372-22.627 9.372-2.946 0-5.799-0.398-8.508-1.143l0.225 0.053zM432 208c-17.673 0-32-14.327-32-32v0c0-17.673 14.327-32 32-32v0h402.82c17.673 0 32 14.327 32 32v0c0 17.673-14.327 32-32 32v0zM301.977 328.648c-5.642-1.543-10.483-4.421-14.344-8.281v0c-5.791-5.791-9.372-13.791-9.372-22.627s3.582-16.836 9.372-22.627l288-288c5.791-5.791 13.791-9.372 22.627-9.372s16.836 3.582 22.627 9.372v0c5.791 5.791 9.372 13.791 9.372 22.627s-3.582 16.836-9.372 22.627l-288 288c-5.791 5.79-13.791 9.372-22.627 9.372-2.946 0-5.799-0.398-8.508-1.143l0.225 0.053zM304 496c-17.673 0-32-14.327-32-32v0-400c0-17.673 14.327-32 32-32v0c17.673 0 32 14.327 32 32v0 400c0 17.673-14.327 32-32 32v0zM417.457 616.648c-5.642-1.543-10.484-4.421-14.344-8.281l-288-288c-5.791-5.791-9.372-13.791-9.372-22.627s3.582-16.836 9.372-22.627v0c5.791-5.791 13.791-9.372 22.627-9.372s16.836 3.582 22.627 9.372l288 288c5.791 5.791 9.372 13.791 9.372 22.627s-3.582 16.836-9.372 22.627v0c-5.791 5.79-13.791 9.372-22.627 9.372-2.946 0-5.799-0.398-8.508-1.143l0.225 0.053zM189.18 624c-17.673 0-32-14.327-32-32v0c0-17.673 14.327-32 32-32v0h386.82c17.673 0 32 14.327 32 32v0c0 17.673-14.327 32-32 32v0zM417.457 789.168c-5.642-1.543-10.483-4.421-14.344-8.281v0c-5.791-5.791-9.372-13.791-9.372-22.627s3.582-16.836 9.372-22.627l294.258-294.262c5.791-5.792 13.792-9.374 22.629-9.374s16.838 3.582 22.629 9.374v0c5.792 5.791 9.374 13.792 9.374 22.629s-3.582 16.838-9.374 22.629l-294.262 294.258c-5.791 5.79-13.791 9.372-22.627 9.372-2.946 0-5.799-0.398-8.508-1.143l0.225 0.053z" />
<glyph unicode="&#xe920;" glyph-name="aperture-sharp" d="M432 800l258.98-256.36v256.36h-258.98zM362.94 779.24l-202.94-151.24h352l-149.060 151.24zM672 208h256v256l-256-256zM908 532l-152 204v-352l152 148zM96 564v-256l256 256h-256zM660-12l204 152h-352l148-152zM116 236l152-204v352l-152-148zM690.98 451.76l-111.1 110.92h-135.76l-111.1-110.92v-135.52l111.24-111.040c0.88 0 1.76 0.12 2.66 0.12h132.96l111.1 110.92zM331.96 223.82l0.040-255.82h256l-256.040 255.82z" />
<glyph unicode="&#xe921;" glyph-name="apps" d="M208 576c-61.856 0-112 50.144-112 112s50.144 112 112 112c61.856 0 112-50.144 112-112v0c-0.068-61.828-50.172-111.932-111.993-112h-0.007zM512 576c-61.856 0-112 50.144-112 112s50.144 112 112 112c61.856 0 112-50.144 112-112v0c-0.068-61.828-50.172-111.932-111.993-112h-0.007zM816 576c-61.856 0-112 50.144-112 112s50.144 112 112 112c61.856 0 112-50.144 112-112v0c-0.068-61.828-50.172-111.932-111.993-112h-0.007zM208 272c-61.856 0-112 50.144-112 112s50.144 112 112 112c61.856 0 112-50.144 112-112v0c-0.068-61.828-50.172-111.932-111.993-112h-0.007zM512 272c-61.856 0-112 50.144-112 112s50.144 112 112 112c61.856 0 112-50.144 112-112v0c-0.068-61.828-50.172-111.932-111.993-112h-0.007zM816 272c-61.856 0-112 50.144-112 112s50.144 112 112 112c61.856 0 112-50.144 112-112v0c-0.068-61.828-50.172-111.932-111.993-112h-0.007zM208-32c-61.856 0-112 50.144-112 112s50.144 112 112 112c61.856 0 112-50.144 112-112v0c-0.068-61.828-50.172-111.932-111.993-112h-0.007zM512-32c-61.856 0-112 50.144-112 112s50.144 112 112 112c61.856 0 112-50.144 112-112v0c-0.068-61.828-50.172-111.932-111.993-112h-0.007zM816-32c-61.856 0-112 50.144-112 112s50.144 112 112 112c61.856 0 112-50.144 112-112v0c-0.068-61.828-50.172-111.932-111.993-112h-0.007z" />
<glyph unicode="&#xe922;" glyph-name="apps-outline" d="M208 800c-61.494 0-112-50.506-112-112s50.506-112 112-112c61.494 0 112 50.506 112 112s-50.506 112-112 112zM208 736c27.145 0 48-20.855 48-48s-20.855-48-48-48c-27.145 0-48 20.855-48 48s20.855 48 48 48zM512 800c-61.494 0-112-50.506-112-112s50.506-112 112-112c61.494 0 112 50.506 112 112s-50.506 112-112 112zM512 736c27.145 0 48-20.855 48-48s-20.855-48-48-48c-27.145 0-48 20.855-48 48s20.855 48 48 48zM816 800c-61.494 0-112-50.506-112-112s50.506-112 112-112c61.494 0 112 50.506 112 112s-50.506 112-112 112zM816 736c27.145 0 48-20.855 48-48s-20.855-48-48-48c-27.145 0-48 20.855-48 48s20.855 48 48 48zM208 496c-61.494 0-112-50.506-112-112s50.506-112 112-112c61.494 0 112 50.506 112 112s-50.506 112-112 112zM208 432c27.145 0 48-20.855 48-48s-20.855-48-48-48c-27.145 0-48 20.855-48 48s20.855 48 48 48zM512 496c-61.494 0-112-50.506-112-112s50.506-112 112-112c61.494 0 112 50.506 112 112s-50.506 112-112 112zM512 432c27.145 0 48-20.855 48-48s-20.855-48-48-48c-27.145 0-48 20.855-48 48s20.855 48 48 48zM816 496c-61.494 0-112-50.506-112-112s50.506-112 112-112c61.494 0 112 50.506 112 112s-50.506 112-112 112zM816 432c27.145 0 48-20.855 48-48s-20.855-48-48-48c-27.145 0-48 20.855-48 48s20.855 48 48 48zM208 192c-61.494 0-112-50.506-112-112s50.506-112 112-112c61.494 0 112 50.506 112 112s-50.506 112-112 112zM208 128c27.145 0 48-20.855 48-48s-20.855-48-48-48c-27.145 0-48 20.855-48 48s20.855 48 48 48zM512 192c-61.494 0-112-50.506-112-112s50.506-112 112-112c61.494 0 112 50.506 112 112s-50.506 112-112 112zM512 128c27.145 0 48-20.855 48-48s-20.855-48-48-48c-27.145 0-48 20.855-48 48s20.855 48 48 48zM816 192c-61.494 0-112-50.506-112-112s50.506-112 112-112c61.494 0 112 50.506 112 112s-50.506 112-112 112zM816 128c27.145 0 48-20.855 48-48s-20.855-48-48-48c-27.145 0-48 20.855-48 48s20.855 48 48 48z" />
<glyph unicode="&#xe923;" glyph-name="apps-sharp" d="M112 800h192c8.837 0 16-7.163 16-16v-192c0-8.837-7.163-16-16-16h-192c-8.837 0-16 7.163-16 16v192c0 8.837 7.163 16 16 16zM416 800h192c8.837 0 16-7.163 16-16v-192c0-8.837-7.163-16-16-16h-192c-8.837 0-16 7.163-16 16v192c0 8.837 7.163 16 16 16zM720 800h192c8.837 0 16-7.163 16-16v-192c0-8.837-7.163-16-16-16h-192c-8.837 0-16 7.163-16 16v192c0 8.837 7.163 16 16 16zM112 496h192c8.837 0 16-7.163 16-16v-192c0-8.837-7.163-16-16-16h-192c-8.837 0-16 7.163-16 16v192c0 8.837 7.163 16 16 16zM416 496h192c8.837 0 16-7.163 16-16v-192c0-8.837-7.163-16-16-16h-192c-8.837 0-16 7.163-16 16v192c0 8.837 7.163 16 16 16zM720 496h192c8.837 0 16-7.163 16-16v-192c0-8.837-7.163-16-16-16h-192c-8.837 0-16 7.163-16 16v192c0 8.837 7.163 16 16 16zM112 192h192c8.837 0 16-7.163 16-16v-192c0-8.837-7.163-16-16-16h-192c-8.837 0-16 7.163-16 16v192c0 8.837 7.163 16 16 16zM416 192h192c8.837 0 16-7.163 16-16v-192c0-8.837-7.163-16-16-16h-192c-8.837 0-16 7.163-16 16v192c0 8.837 7.163 16 16 16zM720 192h192c8.837 0 16-7.163 16-16v-192c0-8.837-7.163-16-16-16h-192c-8.837 0-16 7.163-16 16v192c0 8.837 7.163 16 16 16z" />
<glyph unicode="&#xe924;" glyph-name="archive" d="M128 568v-488c0-61.856 50.144-112 112-112v0h544c61.856 0 112 50.144 112 112v0 488c0 4.418-3.582 8-8 8v0h-752c-4.418 0-8-3.582-8-8v0zM662 264.74l-127.38-127.36c-5.79-5.786-13.787-9.365-22.62-9.365s-16.83 3.579-22.62 9.365l-127.38 127.36c-12.18 12.18-13.3 32-1.7 44.76 5.876 6.456 14.314 10.492 23.694 10.492 8.836 0 16.836-3.581 22.626-9.372l73.38-73.36v209.84c0 17.22 13.24 32 30.46 32.86 0.46 0.024 0.998 0.037 1.54 0.037 17.672 0 31.998-14.325 32-31.997v0-210.74l73.38 73.36c5.791 5.79 13.79 9.372 22.626 9.372 9.38 0 17.817-4.036 23.671-10.466l0.023-0.026c11.6-12.74 10.48-32.58-1.7-44.76zM128 800h768c35.346 0 64-28.654 64-64v-32c0-35.346-28.654-64-64-64h-768c-35.346 0-64 28.654-64 64v32c0 35.346 28.654 64 64 64z" />
<glyph unicode="&#xe925;" glyph-name="archive-outline" d="M160 624c-17.673 0-32-14.327-32-32v0-512c0-0.014 0-0.030 0-0.047s0-0.033 0-0.049v0.003c0.183-61.354 50.552-111.723 111.906-111.906 0.014 0 0.030 0 0.047 0s0.033 0 0.049 0h543.997c0.014 0 0.030 0 0.047 0s0.033 0 0.049 0h-0.003c61.354 0.183 111.723 50.552 111.906 111.906 0 0.014 0 0.030 0 0.047s0 0.033 0 0.049v-0.003 512c0 17.673-14.327 32-32 32v0c-17.673 0-32-14.327-32-32v0-511.906c-0.080-26.902-21.192-48.013-48.094-48.094h-543.812c-26.902 0.080-48.013 21.192-48.094 48.094v511.906c0 17.673-14.327 32-32 32v0zM152 800c-48.198 0-88-39.802-88-88v-48c0-48.198 39.802-88 88-88h720c48.198 0 88 39.802 88 88v48c0 48.198-39.802 88-88 88zM152 736h720c13.85 0 24-10.151 24-24v-48c0-13.85-10.15-24-24-24h-720c-13.849 0-24 10.15-24 24v48c0 13.849 10.151 24 24 24zM375.719 318.91c-5.643-1.542-10.486-4.421-14.348-8.281v0c-5.792-5.791-9.374-13.792-9.374-22.629s3.582-16.838 9.374-22.629l128-128c5.791-5.791 13.792-9.373 22.629-9.373s16.838 3.582 22.629 9.373l128 128c5.792 5.791 9.374 13.792 9.374 22.629s-3.582 16.838-9.374 22.629v0c-5.791 5.792-13.792 9.374-22.629 9.374s-16.838-3.582-22.629-9.374l-105.371-105.371-105.371 105.371c-5.791 5.79-13.791 9.372-22.627 9.372-2.946 0-5.799-0.398-8.508-1.143l0.225 0.053zM512 480c-17.673 0-32-14.327-32-32v0-243.781c0-17.673 14.327-32 32-32v0c17.673 0 32 14.327 32 32v0 243.781c0 17.673-14.327 32-32 32v0z" />
<glyph unicode="&#xe926;" glyph-name="archive-sharp" d="M88 800h848c13.255 0 24-10.745 24-24v-112c0-13.255-10.745-24-24-24h-848c-13.255 0-24 10.745-24 24v112c0 13.255 10.745 24 24 24zM128 576v-560c0-26.51 21.49-48 48-48v0h672c26.51 0 48 21.49 48 48v0 560zM512 114.74l-173.36 173.26 45.36 45.36 96-96.1v242.74h64v-242.74l96.14 96.14 45.22-45.28z" />
<glyph unicode="&#xe927;" glyph-name="arrow-back" d="M475.578 718.363c-8.464-2.314-15.728-6.631-21.52-12.422l-288-288c-8.685-8.687-14.057-20.687-14.057-33.941s5.372-25.255 14.057-33.942l288-288c8.686-8.686 20.686-14.059 33.941-14.059s25.255 5.373 33.941 14.059v0c8.686 8.686 14.059 20.686 14.059 33.941s-5.373 25.255-14.059 33.941l-254.059 254.059 254.059 254.059c8.686 8.686 14.059 20.686 14.059 33.941s-5.373 25.255-14.059 33.941v0c-8.686 8.685-20.686 14.057-33.94 14.057-4.418 0-8.697-0.597-12.76-1.715l0.337 0.079zM240 432c-26.51 0-48-21.49-48-48v0c0-26.51 21.49-48 48-48v0h584c26.51 0 48 21.49 48 48v0c0 26.51-21.49 48-48 48v0z" />
<glyph unicode="&#xe928;" glyph-name="arrow-back-circle" d="M96 384c0-229.74 186.26-416 416-416s416 186.26 416 416-186.26 416-416 416-416-186.26-416-416zM521.3 566.72c5.846-5.8 9.466-13.837 9.466-22.72 0-8.793-3.547-16.758-9.287-22.542l-104.638-105.458h267.16c17.673 0 32-14.327 32-32s-14.327-32-32-32v0h-267.16l104.64-105.46c5.735-5.784 9.278-13.748 9.278-22.54 0-17.683-14.335-32.018-32.018-32.018-8.891 0-16.936 3.624-22.738 9.476l-0.002 0.002-158.78 160c-5.739 5.782-9.286 13.747-9.286 22.54s3.547 16.758 9.287 22.542l-0.002-0.002 158.78 160c5.802 5.858 13.847 9.486 22.74 9.486 8.803 0 16.776-3.555 22.562-9.307l-0.002 0.002z" />
<glyph unicode="&#xe929;" glyph-name="arrow-back-circle-outline" d="M506.922 574.941c-2.449 0.672-5.261 1.059-8.163 1.059-8.881 0-16.916-3.617-22.714-9.459l-158.76-160.002c-5.738-5.782-9.283-13.747-9.283-22.539s3.546-16.757 9.285-22.541l-0.002 0.002 158.758-160c5.8-5.844 13.836-9.462 22.717-9.462 8.794 0 16.759 3.547 22.543 9.288l-0.002-0.002c5.843 5.799 9.46 13.835 9.46 22.715 0 8.793-3.546 16.757-9.287 22.541l-136.396 137.459 136.398 137.461c5.738 5.782 9.285 13.746 9.285 22.539 0 8.88-3.617 16.915-9.458 22.713l-0.002 0.002c-3.874 3.844-8.728 6.706-14.155 8.175l-0.224 0.052zM362.059 416c-17.673 0-32-14.327-32-32v0c0-17.673 14.327-32 32-32v0h321.941c17.673 0 32 14.327 32 32v0c0 17.673-14.327 32-32 32v0zM512 800c-229.308 0-416-186.692-416-416s186.692-416 416-416c229.308 0 416 186.692 416 416s-186.692 416-416 416zM512 736c194.692 0 352-157.308 352-352s-157.308-352-352-352c-194.692 0-352 157.308-352 352s157.308 352 352 352z" />
<glyph unicode="&#xe92a;" glyph-name="arrow-back-circle-sharp" d="M96 384c0-229.74 186.26-416 416-416s416 186.26 416 416-186.26 416-416 416-416-186.26-416-416zM544 544.18l-127.16-128.18h299.16v-64h-299.16l127.16-128.18-45.4-45.080-203.68 205.26 203.68 205.26z" />
<glyph unicode="&#xe92b;" glyph-name="arrow-back-outline" d="M475.578 718.363c-8.464-2.314-15.728-6.631-21.52-12.422l-288-288c-8.685-8.687-14.057-20.687-14.057-33.941s5.372-25.255 14.057-33.942l288-288c8.686-8.686 20.686-14.059 33.941-14.059s25.255 5.373 33.941 14.059v0c8.686 8.686 14.059 20.686 14.059 33.941s-5.373 25.255-14.059 33.941l-254.059 254.059 254.059 254.059c8.686 8.686 14.059 20.686 14.059 33.941s-5.373 25.255-14.059 33.941v0c-8.686 8.685-20.686 14.057-33.94 14.057-4.418 0-8.697-0.597-12.76-1.715l0.337 0.079zM240 432c-26.51 0-48-21.49-48-48v0c0-26.51 21.49-48 48-48v0h584c26.51 0 48 21.49 48 48v0c0 26.51-21.49 48-48 48v0z" />
<glyph unicode="&#xe92c;" glyph-name="arrow-back-sharp" d="M488 739.883l-355.883-355.883 355.883-355.883 67.883 67.883-288 288 288 288zM192 432v-96h680v96h-632z" />
<glyph unicode="&#xe92d;" glyph-name="arrow-down" d="M211.578 406.363c-8.464-2.314-15.728-6.631-21.52-12.422v0c-8.686-8.686-14.059-20.686-14.059-33.941s5.373-25.255 14.059-33.941l288-288c8.687-8.685 20.687-14.057 33.941-14.057s25.255 5.372 33.942 14.057l288 288c8.686 8.686 14.059 20.686 14.059 33.941s-5.373 25.255-14.059 33.941v0c-8.686 8.686-20.686 14.059-33.941 14.059s-25.255-5.373-33.941-14.059l-254.059-254.059-254.059 254.059c-8.686 8.685-20.686 14.057-33.94 14.057-4.418 0-8.697-0.597-12.76-1.715l0.337 0.079zM512 744c-26.51 0-48-21.49-48-48v0-584c0-26.51 21.49-48 48-48v0c26.51 0 48 21.49 48 48v0 584c0 26.51-21.49 48-48 48v0z" />
<glyph unicode="&#xe92e;" glyph-name="arrow-down-circle" d="M512-32c229.74 0 416 186.26 416 416s-186.26 416-416 416-416-186.26-416-416 186.26-416 416-416zM329.28 393.3c5.8 5.846 13.837 9.466 22.72 9.466 8.793 0 16.758-3.547 22.542-9.287l105.458-104.638v267.16c0 17.673 14.327 32 32 32s32-14.327 32-32v0-267.16l105.46 104.64c5.784 5.735 13.748 9.278 22.54 9.278 17.683 0 32.018-14.335 32.018-32.018 0-8.891-3.624-16.936-9.476-22.738l-0.002-0.002-160-158.78c-5.782-5.739-13.747-9.286-22.54-9.286s-16.758 3.547-22.542 9.287l0.002-0.002-160 158.78c-5.858 5.802-9.486 13.847-9.486 22.74 0 8.803 3.555 16.776 9.307 22.562l-0.002-0.002z" />
<glyph unicode="&#xe92f;" glyph-name="arrow-down-circle-outline" d="M360.16 401.703c-2.448 0.672-5.259 1.058-8.16 1.058-8.88 0-16.915-3.617-22.713-9.458l-0.002-0.002c-5.739-5.782-9.287-13.747-9.287-22.541 0-8.881 3.618-16.917 9.46-22.715l0.002-0.002 160-158.758c5.782-5.738 13.747-9.283 22.539-9.283s16.757 3.546 22.541 9.285l-0.002-0.002 160 158.758c5.844 5.8 9.462 13.836 9.462 22.717 0 8.794-3.547 16.759-9.288 22.543l0.002-0.002c-5.799 5.843-13.835 9.46-22.715 9.46-8.793 0-16.757-3.546-22.541-9.287l-137.459-136.396-137.461 136.398c-3.874 3.844-8.728 6.706-14.155 8.175l-0.224 0.052zM512 588c-17.673 0-32-14.327-32-32v0-321.941c0-17.673 14.327-32 32-32v0c17.673 0 32 14.327 32 32v0 321.941c0 17.673-14.327 32-32 32v0zM512 800c-229.308 0-416-186.692-416-416s186.692-416 416-416c229.308 0 416 186.692 416 416s-186.692 416-416 416zM512 736c194.692 0 352-157.308 352-352s-157.308-352-352-352c-194.692 0-352 157.308-352 352s157.308 352 352 352z" />
<glyph unicode="&#xe930;" glyph-name="arrow-down-circle-sharp" d="M512-32c229.74 0 416 186.26 416 416s-186.26 416-416 416-416-186.26-416-416 186.26-416 416-416zM351.82 416l128.18-127.16v299.16h64v-299.16l128.18 127.16 45.080-45.42-205.26-203.66-205.26 203.68z" />
<glyph unicode="&#xe931;" glyph-name="arrow-down-outline" d="M211.578 406.363c-8.464-2.314-15.728-6.631-21.52-12.422v0c-8.686-8.686-14.059-20.686-14.059-33.941s5.373-25.255 14.059-33.941l288-288c8.687-8.685 20.687-14.057 33.941-14.057s25.255 5.372 33.942 14.057l288 288c8.686 8.686 14.059 20.686 14.059 33.941s-5.373 25.255-14.059 33.941v0c-8.686 8.686-20.686 14.059-33.941 14.059s-25.255-5.373-33.941-14.059l-254.059-254.059-254.059 254.059c-8.686 8.685-20.686 14.057-33.94 14.057-4.418 0-8.697-0.597-12.76-1.715l0.337 0.079zM512 744c-26.51 0-48-21.49-48-48v0-584c0-26.51 21.49-48 48-48v0c26.51 0 48 21.49 48 48v0 584c0 26.51-21.49 48-48 48v0z" />
<glyph unicode="&#xe932;" glyph-name="arrow-down-sharp" d="M224 427.883l-67.883-67.883 355.883-355.883 355.883 355.883-67.883 67.883-288-288-254.059 254.059zM464 744v-680h96v680z" />
<glyph unicode="&#xe933;" glyph-name="arrow-forward" d="M523.578 718.363c-8.464-2.314-15.728-6.631-21.52-12.422v0c-8.686-8.686-14.059-20.686-14.059-33.941s5.373-25.255 14.059-33.941l254.059-254.059-254.059-254.059c-8.686-8.686-14.059-20.686-14.059-33.941s5.373-25.255 14.059-33.941v0c8.686-8.686 20.686-14.059 33.941-14.059s25.255 5.373 33.941 14.059l288 288c8.685 8.687 14.057 20.687 14.057 33.941s-5.372 25.255-14.057 33.942l-288 288c-8.686 8.685-20.686 14.057-33.94 14.057-4.418 0-8.697-0.597-12.76-1.715l0.337 0.079zM200 432c-26.51 0-48-21.49-48-48v0c0-26.51 21.49-48 48-48v0h584c26.51 0 48 21.49 48 48v0c0 26.51-21.49 48-48 48v0z" />
<glyph unicode="&#xe934;" glyph-name="arrow-forward-circle" d="M928 384c0 229.74-186.26 416-416 416s-416-186.26-416-416 186.26-416 416-416 416 186.26 416 416zM502.7 201.28c-5.846 5.8-9.466 13.837-9.466 22.72 0 8.793 3.547 16.758 9.287 22.542l104.638 105.458h-267.16c-17.673 0-32 14.327-32 32s14.327 32 32 32v0h267.16l-104.64 105.46c-5.735 5.784-9.278 13.748-9.278 22.54 0 17.683 14.335 32.018 32.018 32.018 8.891 0 16.936-3.624 22.738-9.476l0.002-0.002 158.78-160c5.739-5.782 9.286-13.747 9.286-22.54s-3.547-16.758-9.287-22.542l0.002 0.002-158.78-160c-5.802-5.858-13.847-9.486-22.74-9.486-8.803 0-16.776 3.555-22.562 9.307l0.002-0.002z" />
<glyph unicode="&#xe935;" glyph-name="arrow-forward-circle-outline" d="M517.078 574.941c-5.651-1.521-10.505-4.382-14.381-8.229l0.002 0.002c-5.843-5.799-9.46-13.835-9.46-22.715 0-8.793 3.546-16.757 9.287-22.541l136.396-137.459-136.398-137.461c-5.738-5.782-9.285-13.746-9.285-22.539 0-8.88 3.617-16.915 9.458-22.713l0.002-0.002c5.782-5.739 13.747-9.287 22.541-9.287 8.881 0 16.917 3.618 22.715 9.46l0.002 0.002 158.758 160c5.738 5.782 9.283 13.747 9.283 22.539s-3.546 16.757-9.285 22.541l0.002-0.002-158.758 160c-5.8 5.844-13.835 9.461-22.716 9.461-2.902 0-5.714-0.386-8.387-1.11l0.224 0.052zM340 416c-17.673 0-32-14.327-32-32v0c0-17.673 14.327-32 32-32v0h321.941c17.673 0 32 14.327 32 32v0c0 17.673-14.327 32-32 32v0zM512 800c-229.308 0-416-186.692-416-416s186.692-416 416-416c229.308 0 416 186.692 416 416s-186.692 416-416 416zM512 736c194.692 0 352-157.308 352-352s-157.308-352-352-352c-194.692 0-352 157.308-352 352s157.308 352 352 352z" />
<glyph unicode="&#xe936;" glyph-name="arrow-forward-circle-sharp" d="M928 384c0 229.74-186.26 416-416 416s-416-186.26-416-416 186.26-416 416-416 416 186.26 416 416zM480 223.82l127.16 128.18h-299.16v64h299.16l-127.16 128.18 45.42 45.080 203.66-205.26-203.68-205.26z" />
<glyph unicode="&#xe937;" glyph-name="arrow-forward-outline" d="M523.578 718.363c-8.464-2.314-15.728-6.631-21.52-12.422v0c-8.686-8.686-14.059-20.686-14.059-33.941s5.373-25.255 14.059-33.941l254.059-254.059-254.059-254.059c-8.686-8.686-14.059-20.686-14.059-33.941s5.373-25.255 14.059-33.941v0c8.686-8.686 20.686-14.059 33.941-14.059s25.255 5.373 33.941 14.059l288 288c8.685 8.687 14.057 20.687 14.057 33.941s-5.372 25.255-14.057 33.942l-288 288c-8.686 8.685-20.686 14.057-33.94 14.057-4.418 0-8.697-0.597-12.76-1.715l0.337 0.079zM200 432c-26.51 0-48-21.49-48-48v0c0-26.51 21.49-48 48-48v0h584c26.51 0 48 21.49 48 48v0c0 26.51-21.49 48-48 48v0z" />
<glyph unicode="&#xe938;" glyph-name="arrow-forward-sharp" d="M536 739.883l-67.883-67.883 288-288-288-288 67.883-67.883 355.883 355.883-321.941 321.941zM152 432v-96h680v96h-632z" />
<glyph unicode="&#xe939;" glyph-name="arrow-redo" d="M117.58 17.74c-12.665 4.455-21.58 16.315-21.58 30.256 0 0.001 0 0.003 0 0.004v0c0 146.2 29.36 263.12 87.3 347.54 70 102 180.42 156.92 328.7 163.74v160.72c0.002 17.672 14.328 31.997 32 31.997 8.577 0 16.366-3.375 22.112-8.869l-0.012 0.011 352-336c6.103-5.837 9.897-14.046 9.897-23.14s-3.794-17.303-9.885-23.129l-0.012-0.011-352-336c-5.734-5.483-13.523-8.857-22.1-8.857-17.672 0-31.998 14.325-32 31.997v0 159.54c-90-2.72-158-17.3-212.14-45.28-58.5-30.24-100.92-75.42-146.64-134-5.911-7.519-15.007-12.304-25.22-12.304-3.732 0-7.314 0.639-10.644 1.813l0.224-0.069z" />
<glyph unicode="&#xe93a;" glyph-name="arrow-redo-circle" d="M96 384c0-229.74 186.26-416 416-416s416 186.26 416 416-186.26 416-416 416-416-186.26-416-416zM288 250.66c10.9 122.9 68.28 234.18 245.74 234.18v74.64c0.090 9.122 7.505 16.482 16.639 16.482 4.397 0 8.395-1.705 11.37-4.49l-0.009 0.009 169.1-159.48c3.178-2.998 5.157-7.238 5.157-11.94s-1.979-8.942-5.149-11.932l-0.008-0.008-168.84-159.54c-2.966-2.777-6.964-4.482-11.361-4.482-9.134 0-16.55 7.36-16.639 16.473v74.588c-114.14 0-169.020-26.94-217.16-77.36-10.98-11.3-30.14-2.64-28.84 12.86z" />
<glyph unicode="&#xe93b;" glyph-name="arrow-redo-circle-outline" d="M533.82 240.52v74.64c-114.14 0-169.020-26.94-217.16-77.36-10.8-11.3-30-2.64-28.58 12.86 10.9 122.9 68.28 234.18 245.74 234.18v74.64c0.090 9.122 7.505 16.482 16.639 16.482 4.397 0 8.395-1.705 11.37-4.49l-0.009 0.009 169.020-159.48c3.178-2.998 5.157-7.238 5.157-11.94s-1.979-8.942-5.149-11.932l-0.008-0.008-168.84-159.54c-2.987-2.879-7.056-4.652-11.54-4.652-9.173 0-16.613 7.423-16.64 16.589v0.003zM512 800c-229.308 0-416-186.692-416-416s186.692-416 416-416c229.308 0 416 186.692 416 416s-186.692 416-416 416zM512 736c194.692 0 352-157.308 352-352s-157.308-352-352-352c-194.692 0-352 157.308-352 352s157.308 352 352 352z" />
<glyph unicode="&#xe93c;" glyph-name="arrow-redo-circle-sharp" d="M96 384c0-229.74 186.26-416 416-416s416 186.26 416 416-186.26 416-416 416-416-186.26-416-416zM292 208c0 136.26 45.34 274.28 238.34 274.28v109.72l201.66-192-201.66-192v109.72c-133.38 0-182.64-38.58-238.34-109.72z" />
<glyph unicode="&#xe93d;" glyph-name="arrow-redo-outline" d="M549.695 751.484c-1.711 0.325-3.68 0.51-5.692 0.51-17.672 0-31.998-14.323-32.003-31.994v0-160.758c-158.365-7.54-265.304-71.321-328.707-163.715-67.585-98.488-87.293-224.757-87.293-347.527 0.007-17.67 14.333-31.991 32.003-31.991 10.21 0 19.304 4.781 25.164 12.227l0.052 0.069c47.521 60.845 89.682 104.506 146.633 133.949 51.352 26.549 116.774 42.286 212.148 45.148v-159.402c0.004-17.672 14.331-31.995 32.003-31.995 8.572 0 16.358 3.37 22.103 8.859l-0.012-0.012 352 336c6.108 5.838 9.904 14.050 9.904 23.148s-3.797 17.31-9.892 23.137l-0.012 0.011-352 336c-4.384 4.188-9.976 7.148-16.201 8.305l-0.198 0.031zM576 645.215l273.656-261.215-273.656-261.215v117.215c-0.002 17.672-14.328 31.998-32 32v0c-119.494 0-204.995-17.458-273.539-52.895-40.674-21.028-74.551-48.127-105.816-79.887 8.607 82.625 30.156 159.968 71.418 220.098 56.2 81.897 147.156 136.684 307.938 136.684 17.672 0.002 31.998 14.328 32 32v0z" />
<glyph unicode="&#xe93e;" glyph-name="arrow-redo-sharp" d="M96 97.48c0 128.14 28.88 230.52 85.82 304.52 68.76 89.34 177.36 137.54 323.12 143.5v206.5l423.060-360-423.060-360v205.3c-88.5-2.38-155.32-15.16-208.54-39.68-57.5-26.5-99.2-66.1-144.16-117.4l-56.24-64.22z" />
<glyph unicode="&#xe93f;" glyph-name="arrow-undo" d="M896 16c-0.001 0-0.002 0-0.003 0-10.212 0-19.306 4.783-25.165 12.231l-0.052 0.069c-45.72 58.54-88.14 103.72-146.64 134-54.14 27.94-122.14 42.52-212.14 45.24v-159.54c-0.056-17.631-14.361-31.902-32-31.902-8.529 0-16.278 3.337-22.014 8.776l0.014-0.013-352 336c-6.103 5.837-9.897 14.046-9.897 23.14s3.794 17.303 9.885 23.129l0.012 0.011 352 336c5.722 5.426 13.471 8.762 22 8.762 17.639 0 31.944-14.271 32-31.897v-160.725c148.28-6.82 258.76-61.82 328.7-163.74 57.94-84.42 87.3-201.34 87.3-347.54 0-17.673-14.327-32-32-32v0z" />
<glyph unicode="&#xe940;" glyph-name="arrow-undo-circle" d="M512 800c-229.74 0-416-186.26-416-416s186.26-416 416-416 416 186.26 416 416-186.26 416-416 416zM707.34 237.8c-48.14 50.42-103.020 77.36-217.16 77.36v-74.64c-0.037-9.162-7.473-16.575-16.64-16.575-4.445 0-8.482 1.743-11.467 4.582l-168.913 159.473c-3.178 2.998-5.157 7.238-5.157 11.94s1.979 8.942 5.149 11.932l0.008 0.008 168.84 159.54c2.978 2.833 7.015 4.575 11.46 4.575 9.167 0 16.603-7.413 16.64-16.572v-74.644c177.46 0 234.84-111.28 245.74-234.18 1.46-15.44-17.7-24.1-28.5-12.8z" />
<glyph unicode="&#xe941;" glyph-name="arrow-undo-circle-outline" d="M490.18 240.52v74.64c114.14 0 169.020-26.94 217.16-77.36 10.8-11.3 30-2.64 28.58 12.86-10.9 122.9-68.28 234.18-245.74 234.18v74.64c-0.037 9.162-7.473 16.575-16.64 16.575-4.445 0-8.482-1.743-11.467-4.582l-168.913-159.473c-3.178-2.998-5.157-7.238-5.157-11.94s1.979-8.942 5.149-11.932l0.008-0.008 168.84-159.54c2.987-2.879 7.056-4.652 11.54-4.652 9.173 0 16.613 7.423 16.64 16.589v0.003zM512 800c-229.308 0-416-186.692-416-416s186.692-416 416-416c229.308 0 416 186.692 416 416s-186.692 416-416 416zM512 736c194.692 0 352-157.308 352-352s-157.308-352-352-352c-194.692 0-352 157.308-352 352s157.308 352 352 352z" />
<glyph unicode="&#xe942;" glyph-name="arrow-undo-circle-sharp" d="M512 800c-229.74 0-416-186.26-416-416s186.26-416 416-416 416 186.26 416 416-186.26 416-416 416zM493.66 317.72v-109.72l-201.66 192 201.66 192v-109.72c193 0 238.34-138 238.34-274.28-55.7 71.14-104.96 109.72-238.34 109.72z" />
<glyph unicode="&#xe943;" glyph-name="arrow-undo-outline" d="M474.305 751.484c-6.422-1.188-12.014-4.148-16.411-8.348l0.012 0.012-352-336c-6.108-5.838-9.904-14.050-9.904-23.148s3.797-17.31 9.892-23.137l0.012-0.011 352-336c5.733-5.476 13.518-8.847 22.091-8.847 17.672 0 31.999 14.324 32.003 31.995v0 159.402c95.375-2.863 160.796-18.6 212.148-45.148 56.951-29.443 99.112-73.104 146.633-133.949 5.912-7.514 15.005-12.296 25.216-12.296 17.671 0 31.996 14.321 32.003 31.99v0.001c0 122.77-19.708 249.040-87.293 347.527-63.403 92.394-170.342 156.175-328.707 163.715v160.758c-0.005 17.671-14.331 31.995-32.003 31.995-2.012 0-3.981-0.186-5.89-0.541l0.198 0.031zM448 645.215v-117.215c0.002-17.672 14.328-31.998 32-32v0c160.781 0 251.737-54.786 307.938-136.684 41.262-60.129 62.811-137.473 71.418-220.098-31.265 31.759-65.143 58.859-105.816 79.887-68.544 35.437-154.045 52.895-273.539 52.895-17.672-0.002-31.998-14.328-32-32v0-117.215l-273.656 261.215z" />
<glyph unicode="&#xe944;" glyph-name="arrow-undo-sharp" d="M928 16l-56.24 64.22c-44.96 51.3-86.66 90.9-144.16 117.4-53.22 24.52-120 37.3-208.54 39.68v-205.3l-423.060 360 423.060 360v-206.42c145.76-6 254.36-54.16 323.12-143.5 56.94-74.080 85.82-176.46 85.82-304.6z" />
<glyph unicode="&#xe945;" glyph-name="arrow-up" d="M499.578 742.363c-8.464-2.314-15.728-6.632-21.52-12.422l-288-288c-8.686-8.686-14.059-20.686-14.059-33.941s5.373-25.255 14.059-33.941v0c8.686-8.686 20.686-14.059 33.941-14.059s25.255 5.373 33.941 14.059l254.059 254.059 254.059-254.059c8.686-8.686 20.686-14.059 33.941-14.059s25.255 5.373 33.941 14.059v0c8.686 8.686 14.059 20.686 14.059 33.941s-5.373 25.255-14.059 33.941l-288 288c-8.687 8.685-20.687 14.057-33.941 14.057-4.418 0-8.696-0.597-12.759-1.714l0.337 0.079zM512 704c-26.51 0-48-21.49-48-48v0-584c0-26.51 21.49-48 48-48v0c26.51 0 48 21.49 48 48v0 584c0 26.51-21.49 48-48 48v0z" />
<glyph unicode="&#xe946;" glyph-name="arrow-up-circle" d="M512 800c-229.74 0-416-186.26-416-416s186.26-416 416-416 416 186.26 416 416-186.26 416-416 416zM694.72 374.7c-5.8-5.846-13.837-9.466-22.72-9.466-8.793 0-16.758 3.547-22.542 9.287l-105.458 104.638v-267.16c0-17.673-14.327-32-32-32s-32 14.327-32 32v0 267.16l-105.46-104.64c-5.784-5.735-13.748-9.278-22.54-9.278-17.683 0-32.018 14.335-32.018 32.018 0 8.891 3.624 16.936 9.476 22.738l0.002 0.002 160 158.78c5.782 5.739 13.747 9.286 22.54 9.286s16.758-3.547 22.542-9.287l-0.002 0.002 160-158.78c5.858-5.802 9.486-13.847 9.486-22.74 0-8.803-3.555-16.776-9.307-22.562l0.002 0.002z" />
<glyph unicode="&#xe947;" glyph-name="arrow-up-circle-outline" d="M503.758 586.918c-5.618-1.528-10.443-4.379-14.299-8.205l0.002 0.002-160-158.758c-5.844-5.8-9.462-13.836-9.462-22.717 0-8.794 3.547-16.759 9.288-22.543l-0.002 0.002c5.799-5.843 13.835-9.46 22.715-9.46 8.793 0 16.757 3.546 22.541 9.287l137.459 136.396 137.461-136.398c5.782-5.738 13.746-9.285 22.539-9.285 8.88 0 16.915 3.617 22.713 9.458l0.002 0.002c5.739 5.782 9.287 13.747 9.287 22.541 0 8.881-3.618 16.917-9.46 22.715l-0.002 0.002-160 158.758c-5.782 5.737-13.746 9.283-22.539 9.283-2.931 0-5.77-0.394-8.467-1.132l0.224 0.052zM512 565.941c-17.673 0-32-14.327-32-32v0-321.941c0-17.673 14.327-32 32-32v0c17.673 0 32 14.327 32 32v0 321.941c0 17.673-14.327 32-32 32v0zM512 800c-229.308 0-416-186.692-416-416s186.692-416 416-416c229.308 0 416 186.692 416 416s-186.692 416-416 416zM512 736c194.692 0 352-157.308 352-352s-157.308-352-352-352c-194.692 0-352 157.308-352 352s157.308 352 352 352z" />
<glyph unicode="&#xe948;" glyph-name="arrow-up-circle-sharp" d="M512 800c-229.74 0-416-186.26-416-416s186.26-416 416-416 416 186.26 416 416-186.26 416-416 416zM672.18 352l-128.18 127.16v-299.16h-64v299.16l-128.18-127.16-45.080 45.4 205.26 203.68 205.26-203.68z" />
<glyph unicode="&#xe949;" glyph-name="arrow-up-outline" d="M499.578 742.363c-8.464-2.314-15.728-6.632-21.52-12.422l-288-288c-8.686-8.686-14.059-20.686-14.059-33.941s5.373-25.255 14.059-33.941v0c8.686-8.686 20.686-14.059 33.941-14.059s25.255 5.373 33.941 14.059l254.059 254.059 254.059-254.059c8.686-8.686 20.686-14.059 33.941-14.059s25.255 5.373 33.941 14.059v0c8.686 8.686 14.059 20.686 14.059 33.941s-5.373 25.255-14.059 33.941l-288 288c-8.687 8.685-20.687 14.057-33.941 14.057-4.418 0-8.696-0.597-12.759-1.714l0.337 0.079zM512 704c-26.51 0-48-21.49-48-48v0-584c0-26.51 21.49-48 48-48v0c26.51 0 48 21.49 48 48v0 584c0 26.51-21.49 48-48 48v0z" />
<glyph unicode="&#xe94a;" glyph-name="arrow-up-sharp" d="M512 763.883l-355.883-355.883 67.883-67.883 288 288 288-288 67.883 67.883-33.941 33.941zM464 704v-680h96v680z" />
<glyph unicode="&#xe94b;" glyph-name="at" d="M507.102 579.461c-99.761 0-177.933-86.48-186.977-189.195-4.522-51.355 8.716-99.557 36.855-135.625s72.038-59.18 121.918-59.18c96.162 0 182.77 73.518 192.977 189.188 9.158 103.851-64.918 194.813-164.773 194.813zM507.102 515.461c61.864 0 107.386-53.042 101.023-125.191-7.795-88.328-63.67-130.809-129.227-130.809-30.98 0-54.416 12.705-71.457 34.547s-26.825 53.639-23.566 90.645c6.516 74.004 61.267 130.809 123.227 130.809zM543.020 771.461c-211.695 0-396.38-169.691-414.898-381.211-18.515-211.476 141.165-386.789 352.859-386.789 65.667 0 110.697 6.177 170.957 31.496 11.615 4.972 19.604 16.304 19.604 29.502 0 4.476-0.919 8.737-2.578 12.605l0.079-0.208c-4.972 11.615-16.304 19.604-29.502 19.604-4.476 0-8.737-0.919-12.605-2.578l0.208 0.079c-53.979-22.68-83.831-26.5-146.164-26.5-177.105 0-304.627 139.883-289.102 317.207 15.521 177.28 174.036 322.793 351.141 322.793 102.502 0 177.575-32.882 226.188-85.457s72.191-126.5 64.375-215.195c0-0.001 0-0.001 0-0.002s0-0.001 0-0.002v0c-11.48-130.393-91.183-151.605-114.715-147.438h-0.004c-14.832 2.631-27.009 9.752-36.258 23.523s-15.884 35.591-12.93 69.16v0.004l16.961 192.496c0.079 0.842 0.124 1.821 0.124 2.811 0 16.684-12.768 30.386-29.066 31.867l-0.124 0.009c-0.842 0.079-1.821 0.124-2.811 0.124-16.685 0-30.388-12.77-31.868-29.070l-0.009-0.124-16.961-192.5c0-0.001 0-0.001 0-0.002s0-0.001 0-0.002v0c-3.925-44.589 4.624-82.265 23.555-110.453s47.932-45.489 78.219-50.859c72.391-12.83 175.88 48.562 189.641 204.84v0.004c9.103 103.303-19.045 197.104-81.137 264.258s-156.702 106.008-273.18 106.008z" />
<glyph unicode="&#xe94c;" glyph-name="at-circle" d="M510.92 798.52c-229.68 0-416-186.22-416-416s186.24-416 416-416 416 186.24 416 416-186.3 416-416 416zM760.56 392c-5.7-65.26-33.58-99.4-56-116.52s-49.34-24.64-72.56-20.48c-22.336 4.1-41.177 16.637-53.463 34.115l-0.177 0.265c-22.333-21.741-52.873-35.149-86.544-35.149-0.512 0-1.023 0.003-1.534 0.009l0.078-0.001c-0.235-0.002-0.513-0.003-0.792-0.003-30.185 0-57.347 12.944-76.238 33.585l-0.071 0.078c-22.76 24.84-34 60.72-30.64 98.46 6 70 61.82 114.78 113.74 122.96 54.4 8.58 104.46-13.080 125.8-38.92l7.7-9.32-12.68-100.76c-2.38-28.68 6.56-46.96 24.58-50.2 4.78-0.84 16.2 0.26 28.74 9.86 13.44 10.3 30.28 32 34.2 76.94 4.7 53.080-8.7 98.38-38.5 130.98-30.98 33.8-78.18 51.68-136.46 51.68-108 0-203.62-88.86-213.16-198-4.56-52.4 11.34-101.36 44.8-137.86 32.72-35.72 78.62-55.48 129.32-55.48 38 0 61.22 4.1 98.96 17.56 2.798 1.029 6.030 1.625 9.4 1.625 15.467 0 28.005-12.538 28.005-28.005 0-12.096-7.669-22.401-18.41-26.318l-0.195-0.062c-43.64-15.54-73.36-20.8-117.76-20.8-66.56 0-127.14 26.12-170.6 73.54-44.1 48.22-65.26 112.34-59.3 180.58 5.82 66.66 36.9 129.26 87.54 176.24s115.14 72.98 181.4 72.98c74.4 0 135.86-24.16 177.74-69.86 40.18-43.82 59.020-105.5 53.080-173.72zM505.14 454c-29.66-4.66-63.12-31.68-66.68-72.52-2-22.12 4-42.44 16.14-55.74 8.686-9.542 21.157-15.507 35.021-15.507 0.281 0 0.561 0.002 0.841 0.007l-0.042-0.001c40.62 0 69.46 29.88 73.5 76.12 0.139 1.551 0.379 2.962 0.721 4.333l-0.041-0.193 6.4 50.9c-14.437 8.671-31.858 13.8-50.477 13.8-5.43 0-10.759-0.436-15.952-1.276l0.57 0.076z" />
<glyph unicode="&#xe94d;" glyph-name="at-circle-outline" d="M512.16 799.84c-229.308 0-416-186.692-416-416s186.692-416 416-416c229.302 0 416 186.637 416 416 0 229.308-186.692 416-416 416zM512.16 735.84c194.692 0 352-157.308 352-352 0-194.757-157.302-352-352-352-194.692 0-352 157.308-352 352s157.308 352 352 352zM532.281 635.578c-137.564 0-256.86-110.857-268.934-249.223-12.073-138.356 92.271-254.117 229.891-254.117 42.291 0 74.215 5.287 117.777 20.805 10.935 3.977 18.604 14.281 18.604 26.377 0 3.369-0.595 6.6-1.686 9.592l0.062-0.195c-3.977 10.935-14.281 18.604-26.377 18.604-3.369 0-6.6-0.595-9.592-1.686l0.195 0.062c-39.758-14.162-60.716-17.559-98.984-17.559-107.060 0-183.593 84.522-174.105 193.246 9.486 108.714 106.152 198.094 213.148 198.094 62.751 0 107.534-20.088 136.504-51.711s43.307-76.283 38.539-130.953c-7.016-79.798-54.258-88.372-62.992-86.859-7.36 1.334-12.944 4.567-17.605 11.574-4.655 6.998-8.595 18.982-6.898 38.883l12.645 100.5-7.711 9.328c-12.677 15.336-30.47 25.604-52.016 32.75-21.535 7.143-46.988 10.389-73.773 6.148-52.589-8.193-107.649-52.839-113.746-122.809-2.983-34.236 5.73-66.734 24.746-91.375s49.188-40.734 83.008-40.734c32.713 0 63.79 13.096 87.367 35.996 13.068-19.442 33.252-31.643 54.145-35.395l0.086-0.016c51.68-9.11 119.551 34.842 128.535 137.125v0.016c5.872 67.33-12.339 129.221-53.039 173.648s-102.705 69.883-177.793 69.883zM520.293 455.066c12.495 0.317 24.561-1.725 34.824-5.129 7.561-2.508 13.639-5.835 18.391-8.957l-6.766-53.785c-0.032-0.060-0.126-0.312-0.217-0.566l-0.061-0.196c-4.628-53.061-36.098-76.113-73.484-76.113-17.061 0-29.258 6.746-38.672 18.945s-15.19 30.54-13.293 52.305c3.661 42.008 39.646 68.152 66.602 72.34l0.043 0.008 0.047 0.008c4.21 0.668 8.421 1.035 12.586 1.141z" />
<glyph unicode="&#xe94e;" glyph-name="at-circle-sharp" d="M512.82 798.52c-229.7 0-416-186.22-416-416s186.24-416 416-416 416 186.24 416 416-186.32 416-416 416zM762.44 392c-5.7-65.26-33.56-99.4-56-116.52s-49.38-24.68-72.66-20.52c-22.565 4.178-41.562 16.968-53.817 34.76l-0.183 0.28c-22.036-22.119-52.523-35.806-86.207-35.806-0.433 0-0.866 0.002-1.299 0.007l0.066-0.001c-0.238-0.002-0.519-0.003-0.801-0.003-30.182 0-57.342 12.944-76.229 33.585l-0.071 0.078c-22.78 24.84-34 60.72-30.66 98.46 6.1 70 61.84 114.78 113.74 122.96 54.42 8.58 104.48-13.080 125.82-38.92l7.68-9.32-12.68-100.76c-2.38-28.68 6.58-46.96 24.58-50.2 4.78-0.84 16.22 0.26 28.76 9.86 13.44 10.3 30.28 32 34.2 76.94 4.64 53.1-8.7 98.38-38.56 130.98-31 33.8-78.2 51.68-136.48 51.68-108 0-203.62-88.86-213.14-198-4.58-52.4 11.32-101.36 44.78-137.86 32.72-35.68 78.72-55.44 129.3-55.44 38 0 61.22 4.1 98.98 17.56l26.44 9.38 18.78-52.74-26.38-9.4c-43.64-15.54-73.36-20.8-117.76-20.8-66.56 0-127.14 26.12-170.6 73.54-44.18 48.22-65.24 112.34-59.3 180.58 5.82 66.66 36.92 129.26 87.54 176.24s115.14 72.98 181.4 72.98c74.4 0 135.88-24.16 177.76-69.86 40.1-43.82 58.96-105.5 53-173.72zM507.020 454c-29.66-4.66-63.1-31.68-66.68-72.52-2-22.12 4-42.44 16.16-55.74 8.679-9.542 21.145-15.507 35.004-15.507 0.287 0 0.573 0.003 0.859 0.008l-0.043-0.001c39.4 0 67.6 29.58 73.6 77.18l3.5 27.78h0.18l3.3 26.22c-14.441 8.672-31.866 13.8-50.49 13.8-5.433 0-10.764-0.437-15.96-1.276l0.57 0.076z" />
<glyph unicode="&#xe94f;" glyph-name="at-outline" d="M507.102 579.461c-99.761 0-177.933-86.48-186.977-189.195-4.522-51.355 8.716-99.557 36.855-135.625s72.038-59.18 121.918-59.18c96.162 0 182.77 73.518 192.977 189.188 9.158 103.851-64.918 194.813-164.773 194.813zM507.102 515.461c61.864 0 107.386-53.042 101.023-125.191-7.795-88.328-63.67-130.809-129.227-130.809-30.98 0-54.416 12.705-71.457 34.547s-26.825 53.639-23.566 90.645c6.516 74.004 61.267 130.809 123.227 130.809zM543.020 771.461c-211.695 0-396.38-169.691-414.898-381.211-18.515-211.476 141.165-386.789 352.859-386.789 65.667 0 110.697 6.177 170.957 31.496 11.615 4.972 19.604 16.304 19.604 29.502 0 4.476-0.919 8.737-2.578 12.605l0.079-0.208c-4.972 11.615-16.304 19.604-29.502 19.604-4.476 0-8.737-0.919-12.605-2.578l0.208 0.079c-53.979-22.68-83.831-26.5-146.164-26.5-177.105 0-304.627 139.883-289.102 317.207 15.521 177.28 174.036 322.793 351.141 322.793 102.502 0 177.575-32.882 226.188-85.457s72.191-126.5 64.375-215.195c0-0.001 0-0.001 0-0.002s0-0.001 0-0.002v0c-11.48-130.393-91.183-151.605-114.715-147.438h-0.004c-14.832 2.631-27.009 9.752-36.258 23.523s-15.884 35.591-12.93 69.16v0.004l16.961 192.496c0.079 0.842 0.124 1.821 0.124 2.811 0 16.684-12.768 30.386-29.066 31.867l-0.124 0.009c-0.842 0.079-1.821 0.124-2.811 0.124-16.685 0-30.388-12.77-31.868-29.070l-0.009-0.124-16.961-192.5c0-0.001 0-0.001 0-0.002s0-0.001 0-0.002v0c-3.925-44.589 4.624-82.265 23.555-110.453s47.932-45.489 78.219-50.859c72.391-12.83 175.88 48.562 189.641 204.84v0.004c9.103 103.303-19.045 197.104-81.137 264.258s-156.702 106.008-273.18 106.008z" />
<glyph unicode="&#xe950;" glyph-name="at-sharp" d="M815.2 664.44c-64.14 70-158.94 107.020-274.18 107.020-102 0-201.38-39.6-279.64-111.52s-126.26-167.68-135.26-269.66c-9.1-103.34 22.82-200.58 89.88-273.8 66.74-72.88 160.14-113.020 262.98-113.020 65.040 0 107.22 4.72 170.96 31.5l29.5 12.4-24.8 59-29.5-12.36c-54.3-22.8-87.56-26.5-146.16-26.5-84.68 0-161.3 32.76-215.78 92.24-54.8 59.84-80.84 139.72-73.32 224.96 15.68 178 173.2 322.8 351.14 322.8 96.8 0 175.3-29.82 226.98-86.26 49.22-53.74 71.2-127.84 63.58-214.3-6.58-74.7-35.52-111.48-58.64-129.2-22-16.88-44-20.36-56-18.22-35.36 6.26-53.74 40.92-49.18 92.58l19.86 218.24-63.82 5.66-4-44.58c-28.966 29.629-69.339 48.001-114.003 48.001-0.224 0-0.448 0-0.671-0.001h0.035c-47.6 0-93.080-20.14-128-56.74-33.54-35.060-54.46-82.1-58.9-132.44-4.9-55.74 11.5-108.68 45.020-145.28 27.942-30.496 67.949-49.546 112.405-49.546 0.476 0 0.952 0.002 1.428 0.007l-0.073-0.001c0.609-0.007 1.329-0.011 2.049-0.011 56.215 0 106.606 24.939 140.712 64.356l0.199 0.235c17.071-32.976 48.084-56.7 85.022-63.507l0.738-0.113c33.78-6 73.46 5.38 106.16 30.42 60.38 46.26 78.72 120.38 83.48 174.4 9.040 103.4-19.4 196.8-80.2 263.24zM562.52 292.44c-22.108-20.493-51.812-33.065-84.451-33.065-0.411 0-0.821 0.002-1.231 0.006h0.063c-0.454-0.008-0.99-0.013-1.527-0.013-25.741 0-48.898 11.067-64.97 28.704l-0.063 0.070c-21.42 23.4-31.8 58.54-28.46 96.44 6.46 73.36 60.58 130.8 123.22 130.8 0.115 0 0.251 0.001 0.387 0.001 28.263 0 53.683-12.173 71.302-31.562l0.071-0.079c21.74-23.74 32.4-57.74 29.26-93.46-3.56-40.56-18.66-74.28-43.6-97.76z" />
<glyph unicode="&#xe951;" glyph-name="attach" d="M456.852 770.93c-93.12 0-169.001-76.805-167.871-169.918v-379.25l0.004 0.461c-1.795-124.023 98.96-226.246 222.996-226.246s224.791 102.223 222.996 226.246l0.004-0.461v354.758c0 17.673-14.327 32-32 32v0c-17.673 0-32-14.327-32-32v0-354.992l0.004-0.23c1.29-89.111-69.883-161.32-159.004-161.32s-160.293 72.209-159.004 161.32l0.004 0.23v380.066l-0.004 0.195c-0.707 58.253 45.617 105.141 103.875 105.141s104.578-46.887 103.871-105.141l-0.004-0.184-0.258-376.832c-0.438-26.643-21.501-47.367-48.152-47.367-26.65 0-47.709 20.722-48.148 47.363v287.23c0 17.673-14.327 32-32 32v0c-17.673 0-32-14.327-32-32v0-287.953l0.004-0.254c0.962-60.885 51.252-110.387 112.145-110.387s111.187 49.502 112.148 110.387l0.004 0.242 0.258 376.977v0.008c1.125 93.11-74.75 169.91-167.867 169.91z" />
<glyph unicode="&#xe952;" glyph-name="attach-outline" d="M456.852 770.93c-93.12 0-169.001-76.805-167.871-169.918v-379.25l0.004 0.461c-1.795-124.023 98.96-226.246 222.996-226.246s224.791 102.223 222.996 226.246l0.004-0.461v354.758c0 17.673-14.327 32-32 32v0c-17.673 0-32-14.327-32-32v0-354.992l0.004-0.23c1.29-89.111-69.883-161.32-159.004-161.32s-160.293 72.209-159.004 161.32l0.004 0.23v380.066l-0.004 0.195c-0.707 58.253 45.617 105.141 103.875 105.141s104.578-46.887 103.871-105.141l-0.004-0.184-0.258-376.832c-0.438-26.643-21.501-47.367-48.152-47.367-26.65 0-47.709 20.722-48.148 47.363v287.23c0 17.673-14.327 32-32 32v0c-17.673 0-32-14.327-32-32v0-287.953l0.004-0.254c0.962-60.885 51.252-110.387 112.145-110.387s111.187 49.502 112.148 110.387l0.004 0.242 0.258 376.977v0.008c1.125 93.11-74.75 169.91-167.867 169.91z" />
<glyph unicode="&#xe953;" glyph-name="attach-sharp" d="M456.852 771.527c-93.12 0-169.001-76.801-167.871-169.914v-379.484l0.004-0.23c1.759-121.537 101.446-219.793 222.996-219.793s221.237 98.256 222.996 219.793l0.004 0.23v386.992h-64v-386.359c-1.296-87.25-71.732-156.656-159-156.656s-157.704 69.406-159 156.656v379.434l-0.004 0.191c-0.707 58.253 45.617 105.141 103.875 105.141s104.578-46.887 103.871-105.141l-0.004-0.18-0.258-376.832c-0.438-26.643-21.501-47.367-48.152-47.367-26.65 0-47.709 20.722-48.148 47.363v318.629h-64v-319.352l0.004-0.254c0.962-60.885 51.252-110.387 112.145-110.387s111.187 49.502 112.148 110.387l0.004 0.242 0.258 376.977v0.008c1.125 93.11-74.75 169.906-167.867 169.906z" />
<glyph unicode="&#xe954;" glyph-name="backspace" d="M806.26 704h-492.52c-26.8-0.034-50.844-11.802-67.275-30.442l-0.085-0.098c-1.397-1.586-2.662-3.354-3.738-5.244l-0.082-0.156-178.56-267.56c-2.878-4.708-4.582-10.405-4.582-16.5s1.704-11.792 4.662-16.641l-0.080 0.141 178.3-267.14c1.202-2.185 2.528-4.072 4.033-5.799l-0.033 0.039c16.515-18.772 40.577-30.565 67.394-30.6h492.566c49.539 0.057 89.683 40.201 89.74 89.734v460.526c-0.057 49.539-40.201 89.683-89.734 89.74h-0.006zM696 274c5.986-5.821 9.701-13.952 9.701-22.951 0-17.673-14.327-32-32-32-9.003 0-17.138 3.718-22.953 9.703l-0.007 0.008-107.4 107.24-107.34-107.3c-5.797-5.797-13.805-9.382-22.65-9.382-17.691 0-32.032 14.341-32.032 32.032 0 8.845 3.585 16.853 9.382 22.65l107.3 107.34-107.38 107.38c-5.786 5.798-9.363 13.801-9.363 22.64 0 17.702 14.351 32.053 32.053 32.053 8.864 0 16.887-3.598 22.689-9.413l107.381-107.401 107.34 107.4c5.794 5.794 13.799 9.378 22.64 9.378 17.683 0 32.018-14.335 32.018-32.018 0-8.841-3.584-16.846-9.378-22.64l-107.4-107.38z" />
<glyph unicode="&#xe955;" glyph-name="backspace-outline" d="M313.711 704c-25.801-0.024-50.389-11.188-67.387-30.598-0.892-1.015-1.748-2.128-2.529-3.294l-0.073-0.116-177.742-268.32c-3.334-4.971-5.321-11.089-5.321-17.671 0-6.585 1.989-12.705 5.398-17.792l-0.073 0.116 172.395-260.184v9.578c0.001-8.072 2.99-15.446 7.922-21.076l-0.032 0.037c16.991-19.47 41.616-30.669 67.457-30.68 0.002 0 0.004 0 0.006 0s0.004 0 0.006 0h492.523c0.021 0 0.046 0 0.070 0s0.049 0 0.074 0h-0.004c49.022 0.219 89.378 40.575 89.597 89.598 0 0.021 0 0.046 0 0.070s0 0.049 0 0.074v-0.004 460.523c0 0.021 0 0.046 0 0.070s0 0.049 0 0.074v-0.004c-0.219 49.022-40.575 89.378-89.598 89.598-0.021 0-0.046 0-0.070 0s-0.049 0-0.074 0h-492.519c-0.004 0-0.009 0-0.014 0s-0.010 0-0.014 0h0.001zM313.77 640h492.348c14.637-0.065 25.817-11.246 25.883-25.883v-460.234c-0.065-14.637-11.246-25.817-25.883-25.883h-492.379c-6.952 0.006-13.476 2.902-18.281 7.867l-164.41 248.137 164.316 248.055c4.829 5.016 11.404 7.935 18.406 7.941zM665.059 542.25c-5.643-1.542-10.486-4.421-14.348-8.281l-260.020-260.020c-5.792-5.791-9.374-13.792-9.374-22.629s3.582-16.838 9.374-22.629v0c5.791-5.792 13.792-9.374 22.629-9.374s16.838 3.582 22.629 9.374l260.020 260.020c5.792 5.791 9.374 13.792 9.374 22.629s-3.582 16.838-9.374 22.629v0c-5.791 5.79-13.791 9.372-22.627 9.372-2.946 0-5.799-0.398-8.508-1.143l0.225 0.053zM405.039 542.25c-5.643-1.542-10.486-4.421-14.348-8.281v0c-5.792-5.791-9.374-13.792-9.374-22.629s3.582-16.838 9.374-22.629l260.020-260.020c5.791-5.792 13.792-9.374 22.629-9.374s16.838 3.582 22.629 9.374v0c5.792 5.791 9.374 13.792 9.374 22.629s-3.582 16.838-9.374 22.629l-260.020 260.020c-5.791 5.79-13.791 9.372-22.627 9.372-2.946 0-5.799-0.398-8.508-1.143l0.225 0.053z" />
<glyph unicode="&#xe956;" glyph-name="backspace-sharp" d="M288 704l-224-320 224-320h608v640zM718.6 251.32l-45.26-45.32-130 130-130-130-45.34 45.32 130 130-130 130 45.26 45.26 130-130 130 130 45.26-45.26-130-130z" />
<glyph unicode="&#xe957;" glyph-name="bag" d="M909.3 557.2c-11.532 11.612-27.507 18.8-45.16 18.8-0.049 0-0.098 0-0.147 0h-127.992v32c0 123.712-100.288 224-224 224s-224-100.288-224-224v0-32h-128c-35.346 0-64-28.654-64-64v0-432c0-78 66-144 144-144h544c0.013 0 0.029 0 0.045 0 39.283 0 74.903 15.682 100.942 41.127l-0.028-0.027c26.506 25.321 42.998 60.93 43.040 100.392v434.508c0 0.059 0 0.128 0 0.197 0 17.586-7.148 33.501-18.698 45l-0.002 0.002zM352 608c0 88.366 71.634 160 160 160s160-71.634 160-160v0-32h-320z" />
<glyph unicode="&#xe958;" glyph-name="bag-add" d="M909.32 557.2c-11.545 11.613-27.53 18.8-45.193 18.8-0.044 0-0.089 0-0.133 0h-127.993v32c0 123.712-100.288 224-224 224s-224-100.288-224-224v0-32h-128c-35.346 0-64-28.654-64-64v0-432c0-78 66-144 144-144h544c0.013 0 0.029 0 0.045 0 39.283 0 74.903 15.682 100.942 41.127l-0.028-0.027c26.506 25.321 42.998 60.93 43.040 100.392v434.508c0 0.057 0 0.125 0 0.192 0 17.583-7.14 33.499-18.679 45.006l-0.001 0.001zM640 224h-96v-96c0-17.673-14.327-32-32-32s-32 14.327-32 32v0 96h-96c-17.673 0-32 14.327-32 32s14.327 32 32 32v0h96v96c0 17.673 14.327 32 32 32s32-14.327 32-32v0-96h96c17.673 0 32-14.327 32-32s-14.327-32-32-32v0zM672 576h-320v32c0 88.366 71.634 160 160 160s160-71.634 160-160v0z" />
<glyph unicode="&#xe959;" glyph-name="bag-add-outline" d="M512 416c-17.673 0-32-14.327-32-32v0-256c0-17.673 14.327-32 32-32v0c17.673 0 32 14.327 32 32v0 256c0 17.673-14.327 32-32 32v0zM384 288c-17.673 0-32-14.327-32-32v0c0-17.673 14.327-32 32-32v0h256c17.673 0 32 14.327 32 32v0c0 17.673-14.327 32-32 32v0zM160 576c-34.967 0-64-29.033-64-64v-432c0-78.653 65.347-144 144-144h544c77.771 0 144 62.847 144 141.5v434.5c0 34.967-29.033 64-64 64zM160 512h704v-434.5c0-42.307-36.811-77.5-80-77.5h-544c-42.307 0-80 37.693-80 80zM512 832c-123.333 0-224-100.667-224-224v-64c0-17.673 14.327-32 32-32v0c17.673 0 32 14.327 32 32v0 64c0 88.745 71.255 160 160 160s160-71.255 160-160v-64c0-17.673 14.327-32 32-32v0c17.673 0 32 14.327 32 32v0 64c0 123.333-100.667 224-224 224z" />
<glyph unicode="&#xe95a;" glyph-name="bag-add-sharp" d="M920 576h-176v24c-0.102 126.072-100.635 228.63-225.909 231.993l-0.311 0.007c-2 0-3.84 0-5.78 0s-3.86 0-5.78 0c-125.585-3.37-226.118-105.928-226.22-231.99v-24.010h-176c-4.418 0-8-3.582-8-8v0-600c0-17.673 14.327-32 32-32v0h768c17.673 0 32 14.327 32 32v0 600c0 4.418-3.582 8-8 8v0zM360 598c0 83.68 66.82 153.12 150.5 154 0.398 0.004 0.869 0.006 1.34 0.006 83.981 0 152.072-68.037 152.16-151.998v-24.008h-304zM672 224h-128v-128h-64v128h-128v64h128v128h64v-128h128z" />
<glyph unicode="&#xe95b;" glyph-name="bag-check" d="M909.3 557.2c-11.532 11.612-27.507 18.8-45.16 18.8-0.049 0-0.098 0-0.147 0h-127.992v32c0 123.712-100.288 224-224 224s-224-100.288-224-224v0-32h-128c-35.346 0-64-28.654-64-64v0-432c0-78 66-144 144-144h544c0.013 0 0.029 0 0.045 0 39.283 0 74.903 15.682 100.942 41.127l-0.028-0.027c26.506 25.321 42.998 60.93 43.040 100.392v434.508c0 0.059 0 0.128 0 0.197 0 17.586-7.148 33.501-18.698 45l-0.002 0.002zM664.98 348l-179.2-224c-5.806-7.211-14.577-11.833-24.432-12h-0.548c-0.001 0-0.001 0-0.002 0-9.712 0-18.414 4.327-24.282 11.158l-0.036 0.042-76.8 89.76c-4.775 5.557-7.682 12.839-7.682 20.8 0 17.674 14.328 32.002 32.002 32.002 9.713 0 18.415-4.327 24.284-11.159l0.036-0.043 51.68-60.38 155.020 193.82c5.916 7.351 14.914 12.016 25 12.016 17.682 0 32.016-14.334 32.016-32.016 0-7.595-2.645-14.573-7.064-20.062l0.048 0.062zM672 576h-320v32c0 88.366 71.634 160 160 160s160-71.634 160-160v0z" />
<glyph unicode="&#xe95c;" glyph-name="bag-check-outline" d="M644.816 399.637c-1.448 0.232-3.117 0.365-4.817 0.365-10.081 0-19.074-4.662-24.939-11.947l-0.048-0.062-155.039-193.801-51.656 60.371c-5.904 6.872-14.605 11.198-24.316 11.198-7.963 0-15.247-2.909-20.847-7.722l0.042 0.036c-6.871-5.904-11.196-14.604-11.196-24.315 0-7.962 2.908-15.245 7.72-20.845l-0.036 0.042 76.801-89.762c5.905-6.871 14.605-11.196 24.316-11.196 10.082 0 19.074 4.662 24.94 11.947l0.048 0.062 179.199 224c4.37 5.425 7.014 12.4 7.014 19.992 0 10.082-4.662 19.074-11.948 24.94l-0.062 0.048c-4.197 3.38-9.351 5.74-14.995 6.625l-0.181 0.023zM160 576c-34.967 0-64-29.033-64-64v-432c0-78.653 65.347-144 144-144h544c77.771 0 144 62.847 144 141.5v434.5c0 34.967-29.033 64-64 64zM160 512h704v-434.5c0-42.307-36.811-77.5-80-77.5h-544c-42.307 0-80 37.693-80 80zM512 832c-123.333 0-224-100.667-224-224v-64c0-17.673 14.327-32 32-32v0c17.673 0 32 14.327 32 32v0 64c0 88.745 71.255 160 160 160s160-71.255 160-160v-64c0-17.673 14.327-32 32-32v0c17.673 0 32 14.327 32 32v0 64c0 123.333-100.667 224-224 224z" />
<glyph unicode="&#xe95d;" glyph-name="bag-check-sharp" d="M920 576h-176v24c-0.102 126.072-100.635 228.63-225.909 231.993l-0.311 0.007c-2 0-3.84 0-5.78 0s-3.86 0-5.78 0c-125.585-3.37-226.118-105.928-226.22-231.99v-24.010h-176c-4.418 0-8-3.582-8-8v0-600c0-17.673 14.327-32 32-32v0h768c17.673 0 32 14.327 32 32v0 600c0 4.418-3.582 8-8 8v0zM360 598c0 83.68 66.82 153.12 150.5 154 0.398 0.004 0.869 0.006 1.34 0.006 83.981 0 152.072-68.037 152.16-151.998v-24.008h-304zM461.62 93.76l-122.74 143.44 48.62 41.62 72.5-84.64 175.020 218.8 50-40z" />
<glyph unicode="&#xe95e;" glyph-name="bag-handle" d="M909.3 557.2c-11.532 11.612-27.507 18.8-45.16 18.8-0.049 0-0.098 0-0.147 0h-127.992v32c0 123.712-100.288 224-224 224s-224-100.288-224-224v0-32h-128c-35.346 0-64-28.654-64-64v0-432c0-78 66-144 144-144h544c0.013 0 0.029 0 0.045 0 39.283 0 74.903 15.682 100.942 41.127l-0.028-0.027c26.506 25.321 42.998 60.93 43.040 100.392v434.508c0 0.059 0 0.128 0 0.197 0 17.586-7.148 33.501-18.698 45l-0.002 0.002zM352 608c0 88.366 71.634 160 160 160s160-71.634 160-160v0-32h-320zM736 416c0-123.712-100.288-224-224-224s-224 100.288-224 224v0 32c0 17.673 14.327 32 32 32s32-14.327 32-32v0-32c0-88.366 71.634-160 160-160s160 71.634 160 160v0 32c0 17.673 14.327 32 32 32s32-14.327 32-32v0z" />
<glyph unicode="&#xe95f;" glyph-name="bag-handle-outline" d="M160 576c-34.967 0-64-29.033-64-64v-432c0-78.653 65.347-144 144-144h544c77.771 0 144 62.847 144 141.5v434.5c0 34.967-29.033 64-64 64zM160 512h704v-434.5c0-42.307-36.811-77.5-80-77.5h-544c-42.307 0-80 37.693-80 80zM512 832c-123.333 0-224-100.667-224-224v-64c0-17.673 14.327-32 32-32v0c17.673 0 32 14.327 32 32v0 64c0 88.745 71.255 160 160 160s160-71.255 160-160v-64c0-17.673 14.327-32 32-32v0c17.673 0 32 14.327 32 32v0 64c0 123.333-100.667 224-224 224zM320 480c-17.673 0-32-14.327-32-32v0-32c0-123.333 100.667-224 224-224s224 100.667 224 224v32c0 17.673-14.327 32-32 32v0c-17.673 0-32-14.327-32-32v0-32c0-88.745-71.255-160-160-160s-160 71.255-160 160v32c0 17.673-14.327 32-32 32v0z" />
<glyph unicode="&#xe960;" glyph-name="bag-handle-sharp" d="M920 576h-176v24c-0.102 126.072-100.635 228.63-225.909 231.993l-0.311 0.007c-2 0-3.84 0-5.78 0s-3.86 0-5.78 0c-125.585-3.37-226.118-105.928-226.22-231.99v-24.010h-176c-4.418 0-8-3.582-8-8v0-600c0-17.673 14.327-32 32-32v0h768c17.673 0 32 14.327 32 32v0 600c0 4.418-3.582 8-8 8v0zM360 598c0 83.68 66.82 153.12 150.5 154 0.398 0.004 0.869 0.006 1.34 0.006 83.981 0 152.072-68.037 152.16-151.998v-24.008h-304zM736 416c0-123.712-100.288-224-224-224s-224 100.288-224 224v0 64h64v-64c0-88.366 71.634-160 160-160s160 71.634 160 160v0 64h64z" />
<glyph unicode="&#xe961;" glyph-name="bag-outline" d="M160 576c-34.967 0-64-29.033-64-64v-432c0-78.653 65.347-144 144-144h544c77.771 0 144 62.847 144 141.5v434.5c0 34.967-29.033 64-64 64zM160 512h704v-434.5c0-42.307-36.811-77.5-80-77.5h-544c-42.307 0-80 37.693-80 80zM512 832c-123.333 0-224-100.667-224-224v-64c0-17.673 14.327-32 32-32v0c17.673 0 32 14.327 32 32v0 64c0 88.745 71.255 160 160 160s160-71.255 160-160v-64c0-17.673 14.327-32 32-32v0c17.673 0 32 14.327 32 32v0 64c0 123.333-100.667 224-224 224z" />
<glyph unicode="&#xe962;" glyph-name="bag-remove" d="M909.32 557.2c-11.545 11.613-27.53 18.8-45.193 18.8-0.044 0-0.089 0-0.133 0h-127.993v32c0 123.712-100.288 224-224 224s-224-100.288-224-224v0-32h-128c-35.346 0-64-28.654-64-64v0-432c0-78 66-144 144-144h544c0.013 0 0.029 0 0.045 0 39.283 0 74.903 15.682 100.942 41.127l-0.028-0.027c26.506 25.321 42.998 60.93 43.040 100.392v434.508c0 0.057 0 0.125 0 0.192 0 17.583-7.14 33.499-18.679 45.006l-0.001 0.001zM640 224h-256c-17.673 0-32 14.327-32 32s14.327 32 32 32v0h256c17.673 0 32-14.327 32-32s-14.327-32-32-32v0zM672 576h-320v32c0 88.366 71.634 160 160 160s160-71.634 160-160v0z" />
<glyph unicode="&#xe963;" glyph-name="bag-remove-outline" d="M384 288c-17.673 0-32-14.327-32-32v0c0-17.673 14.327-32 32-32v0h256c17.673 0 32 14.327 32 32v0c0 17.673-14.327 32-32 32v0zM160 576c-34.967 0-64-29.033-64-64v-432c0-78.653 65.347-144 144-144h544c77.771 0 144 62.847 144 141.5v434.5c0 34.967-29.033 64-64 64zM160 512h704v-434.5c0-42.307-36.811-77.5-80-77.5h-544c-42.307 0-80 37.693-80 80zM512 832c-123.333 0-224-100.667-224-224v-64c0-17.673 14.327-32 32-32v0c17.673 0 32 14.327 32 32v0 64c0 88.745 71.255 160 160 160s160-71.255 160-160v-64c0-17.673 14.327-32 32-32v0c17.673 0 32 14.327 32 32v0 64c0 123.333-100.667 224-224 224z" />
<glyph unicode="&#xe964;" glyph-name="bag-remove-sharp" d="M920 576h-176v24c-0.102 126.072-100.635 228.63-225.909 231.993l-0.311 0.007c-2 0-3.84 0-5.78 0s-3.86 0-5.78 0c-125.585-3.37-226.118-105.928-226.22-231.99v-24.010h-176c-4.418 0-8-3.582-8-8v0-600c0-17.673 14.327-32 32-32v0h768c17.673 0 32 14.327 32 32v0 600c0 4.418-3.582 8-8 8v0zM360 598c0 83.68 66.82 153.12 150.5 154 0.398 0.004 0.869 0.006 1.34 0.006 83.981 0 152.072-68.037 152.16-151.998v-24.008h-304zM672 224h-320v64h320z" />
<glyph unicode="&#xe965;" glyph-name="bag-sharp" d="M744 576v24c-0.102 126.072-100.635 228.63-225.909 231.993l-0.311 0.007c-2 0-3.84 0-5.78 0s-3.86 0-5.78 0c-125.585-3.37-226.118-105.928-226.22-231.99v-24.010h-176c-4.418 0-8-3.582-8-8v0-600c0-17.673 14.327-32 32-32v0h768c17.673 0 32 14.327 32 32v0 600c0 4.418-3.582 8-8 8v0zM664 576h-304v22c0 83.68 66.82 153.12 150.5 154 0.398 0.004 0.869 0.006 1.34 0.006 83.981 0 152.072-68.037 152.16-151.998v-0.008z" />
<glyph unicode="&#xe966;" glyph-name="balloon" d="M782 281.46c65.5 92.7 93.18 203.26 78 311.36-24.895 171.97-171.294 302.616-348.206 302.616-17.297 0-34.301-1.249-50.929-3.661l1.895 0.226c-192-26.98-326.28-205.16-299.3-397.16 15.14-107.78 72.24-206.32 160.74-277.48 49.16-39.36 104.62-67 157.24-79.36 7.088-1.746 12.262-8.047 12.262-15.557 0-1.019-0.095-2.016-0.277-2.982l0.016 0.099-9.74-52.76c-0.391-1.895-0.615-4.072-0.615-6.302 0-5.417 1.322-10.525 3.661-15.019l-0.086 0.181c5.453-10.313 16.111-17.22 28.382-17.22 0.006 0 0.012 0 0.019 0h-0.001c0.017 0 0.038 0 0.059 0 1.553 0 3.079 0.116 4.569 0.341l-0.168-0.021 35.62 5c0.165 0.024 0.357 0.038 0.551 0.038 1.599 0 2.979-0.938 3.619-2.294l0.010-0.024c33.44-72.62 90.92-127.7 164.3-156.72 3.484-1.417 7.525-2.239 11.758-2.239 13.926 0 25.774 8.896 30.173 21.315l0.069 0.224c5.66 16.36-3.28 34.14-19.36 40.56-50.834 20.674-91.81 56.858-117.988 102.599l-0.612 1.161c-0.35 0.582-0.558 1.286-0.558 2.037 0 2.018 1.494 3.687 3.436 3.961l0.021 0.002 14.8 2c8.034 1.063 15.027 4.872 20.138 10.436l0.022 0.024c5.052 5.634 8.141 13.118 8.141 21.324 0 5.203-1.242 10.115-3.445 14.458l0.084-0.182-24.12 48.46c-1.058 2.079-1.677 4.533-1.677 7.132 0 5.971 3.271 11.178 8.118 13.927l0.079 0.041c47.18 26.34 92.9 68 129.3 119.46zM472.2 247.9c-4.234 0-8.276 0.823-11.975 2.317l0.215-0.077c-82.52 32.64-152.6 105.4-182.9 189.88-1.272 3.316-2.009 7.151-2.009 11.159 0 17.673 14.327 32 32 32 13.934 0 25.787-8.906 30.18-21.335l0.069-0.224c29-80.88 94.54-131.54 146.2-152 11.954-4.818 20.238-16.322 20.238-29.76 0-17.673-14.327-32-32-32-0.006 0-0.013 0-0.019 0h0.001z" />
<glyph unicode="&#xe967;" glyph-name="balloon-outline" d="M498.461 895.262c-11.856-0.451-23.797-1.505-35.793-3.191-191.94-26.978-326.256-205.224-299.277-397.164v-0.004l0.004-0.004c16.802-119.281 82.537-214.562 160.793-277.477s168.733-95.892 245.352-85.109c76.544 10.773 154.487 67.19 212.391 149.152s94.806 191.7 77.98 311.352l-4.953 35.211-1.828-0.457c-39.495 161.559-188.517 274.017-354.668 267.692zM500.965 831.328c145.946 5.679 274.71-99.608 295.488-247.441l0.414-2.953c13.251-100.358-17.908-192.761-67.207-262.543-49.786-70.473-118.963-115.656-169.039-122.703-50.001-7.037-129.003 17.483-196.332 71.613-67.327 54.128-123.279 135.438-137.52 236.512-22.164 157.689 87.116 302.715 244.805 324.879 9.856 1.385 19.661 2.258 29.391 2.637zM313.285 482.309c-1.715 0.326-3.687 0.512-5.703 0.512-3.875 0-7.59-0.689-11.027-1.951l0.222 0.071c-12.464-4.564-21.198-16.323-21.198-30.122 0-3.873 0.688-7.586 1.949-11.022l-0.071 0.222c33.913-94.573 108.586-160.451 182.883-189.871 3.49-1.422 7.538-2.247 11.78-2.247 13.43 0 24.928 8.273 29.674 20.001l0.077 0.215c1.423 3.491 2.249 7.541 2.249 11.783 0 13.431-8.274 24.929-20.003 29.675l-0.215 0.077c-57.023 22.58-119.352 77.102-146.199 151.969-3.907 10.676-13.041 18.572-24.22 20.657l-0.198 0.031zM584.105 100.746c-1.717 0.327-3.692 0.514-5.71 0.514-3.872 0-7.584-0.688-11.020-1.948l0.222 0.071c-12.464-4.563-21.199-16.323-21.199-30.122 0-3.875 0.689-7.588 1.95-11.026l-0.071 0.222c33.51-93.427 101.851-154.669 175.34-183.77 3.49-1.422 7.54-2.248 11.782-2.248 13.432 0 24.931 8.276 29.676 20.006l0.077 0.215c1.422 3.489 2.247 7.538 2.247 11.779 0 13.431-8.275 24.93-20.005 29.676l-0.215 0.077c-57.831 22.9-111.411 69.899-138.66 145.871-3.907 10.673-13.040 18.568-24.216 20.653l-0.198 0.031zM592.266 200.168l-63.301-8.898c-13.676-1.978-24.449-12.366-26.98-25.675l-0.032-0.2-18.34-99.219c-0.338-1.747-0.532-3.757-0.532-5.812 0-17.675 14.328-32.003 32.003-32.003 1.57 0 3.114 0.113 4.623 0.331l-0.172-0.020 126.621 17.801c15.651 2.266 27.541 15.59 27.541 31.691 0 5.197-1.239 10.106-3.438 14.445l0.084-0.183-44.98 90.32c-5.364 10.596-16.171 17.733-28.646 17.733-1.57 0-3.114-0.113-4.624-0.332l0.172 0.020zM578.352 133.582l14.898-29.918-38.629-5.434 6.078 32.871z" />
<glyph unicode="&#xe968;" glyph-name="balloon-sharp" d="M782 281.46c65.5 92.7 93.18 203.26 78 311.36v0c-27.060 192-205.24 326.26-397.24 299.18s-326.28-205.060-299.3-397.060c15.14-107.78 72.24-206.32 160.74-277.48 53.82-43.28 115.18-72.2 172.1-82.66l-16.72-90.46c-0.171-0.878-0.269-1.889-0.269-2.922 0-8.837 7.163-16 16-16 0.8 0 1.587 0.059 2.356 0.172l-0.087-0.011 60.42 8.42c31.8-71.74 83.3-120.96 156.82-150l29.76-11.76 23.54 59.5-29.76 11.78c-52.7 20.84-88.96 52.32-114 99.84l43.68 6.14c7.829 1.128 13.779 7.792 13.779 15.845 0 2.6-0.62 5.056-1.721 7.226l0.042-0.091-40.98 82.32c51.96 25.74 102.98 70.36 142.84 126.66zM460.36 250.14c-82.52 32.64-152.6 105.4-182.9 189.88l-10.8 30.12 60.24 21.6 10.8-30.12c29-80.88 94.54-131.54 146.2-152l29.76-11.76-23.54-59.52z" />
<glyph unicode="&#xe969;" glyph-name="ban" d="M512 832c-246.855 0-448-201.145-448-448s201.145-448 448-448c246.855 0 448 201.145 448 448s-201.145 448-448 448zM512 736c194.973 0 352-157.027 352-352s-157.027-352-352-352c-194.973 0-352 157.027-352 352s157.027 352 352 352zM229.16 666.84l565.68-565.68zM263.102 700.781l-67.883-67.883 565.68-565.68 67.883 67.883z" />
<glyph unicode="&#xe96a;" glyph-name="bandage" d="M551.6 582c-5.791 5.792-13.792 9.375-22.63 9.375s-16.839-3.583-22.63-9.375l-186.68-186.68c-5.792-5.791-9.375-13.792-9.375-22.63s3.583-16.839 9.375-22.63l158.4-158.4c5.791-5.792 13.792-9.375 22.63-9.375s16.839 3.583 22.63 9.375l186.68 186.68c5.792 5.791 9.375 13.792 9.375 22.63s-3.583 16.839-9.375 22.63v0zM438.62 361.38c-5.792-5.795-13.795-9.38-22.635-9.38-17.673 0-32 14.327-32 32s14.327 32 32 32c8.84 0 16.843-3.585 22.635-9.38v0c5.786-5.79 9.365-13.787 9.365-22.62s-3.579-16.83-9.365-22.62v0zM534.62 265.38c-5.792-5.795-13.795-9.38-22.635-9.38-17.673 0-32 14.327-32 32s14.327 32 32 32c8.84 0 16.843-3.585 22.635-9.38v0c5.786-5.79 9.365-13.787 9.365-22.62s-3.579-16.83-9.365-22.62v0zM534.62 457.38c-5.792-5.795-13.795-9.38-22.635-9.38-17.673 0-32 14.327-32 32s14.327 32 32 32c8.84 0 16.843-3.585 22.635-9.38v0c5.786-5.79 9.365-13.787 9.365-22.62s-3.579-16.83-9.365-22.62v0zM630.62 361.38c-5.792-5.795-13.795-9.38-22.635-9.38-17.673 0-32 14.327-32 32s14.327 32 32 32c8.84 0 16.843-3.585 22.635-9.38v0c5.786-5.79 9.365-13.787 9.365-22.62s-3.579-16.83-9.365-22.62v0zM931.22 803.22c-37.741 37.56-89.784 60.78-147.25 60.78s-109.509-23.219-147.258-60.788l0.008 0.008-139.52-139.78c-1.437-1.446-2.325-3.438-2.325-5.638 0-4.418 3.582-8 8-8 0.978 0 1.914 0.175 2.78 0.496l-0.055-0.018c6.886 2.85 14.865 4.679 23.219 5.074l0.161 0.006c0.072 0 0.158 0 0.244 0 26.432 0 50.354-10.75 67.632-28.116l158.384-158.384c17.37-17.282 28.12-41.203 28.12-67.636 0-0.086 0-0.172 0-0.258v0.013c-0.399-8.515-2.228-16.494-5.253-23.855l0.173 0.475c-0.303-0.811-0.478-1.747-0.478-2.725 0-4.418 3.582-8 8-8 2.2 0 4.192 0.888 5.639 2.325v0l139.78 139.52c37.56 37.741 60.78 89.784 60.78 147.25s-23.219 109.509-60.788 147.258l0.008-0.008zM508.68 122.34c-0.056 0-0.123 0-0.19 0-26.428 0-50.357 10.699-67.691 28.002l-158.379 158.459c-7.586 7.577-13.904 16.421-18.611 26.188l-0.249 0.572c-9.18 19.4-2.78 50 4.96 73.8 0.215 0.69 0.34 1.484 0.34 2.306 0 4.418-3.582 8-8 8-2.191 0-4.176-0.881-5.62-2.307l0.001 0.001-154.46-154.080c-37.685-37.685-60.993-89.745-60.993-147.25 0-115.009 93.234-208.243 208.243-208.243 57.505 0 109.565 23.308 147.25 60.993v0l145.5 145.76c1.443 1.447 2.336 3.444 2.336 5.65 0 4.418-3.582 8-8 8-0.989 0-1.937-0.18-2.811-0.508l0.055 0.018c-8.36-3.16-16.8-5.36-23.68-5.36z" />
<glyph unicode="&#xe96b;" glyph-name="bandage-outline" d="M92.782 259.279c-81.184-81.184-81.184-213.31 0-294.493l0.014-0.014c81.184-81.184 213.312-81.187 294.496-0.003l543.95 543.95c81.184 81.184 81.181 213.312-0.003 294.496l-0.014 0.014c-81.184 81.184-213.31 81.184-294.493 0zM138.037 214.024l543.95 543.95c56.896 56.896 147.088 56.896 203.984 0l0.014-0.014c56.895-56.895 56.898-147.091 0.003-203.986l-543.95-543.95c-56.896-56.896-147.091-56.893-203.986 0.003l-0.014 0.014c-56.896 56.896-56.896 147.088 0 203.984zM596.833 627.239c-37.215 37.215-98.549 37.215-135.765 0l-186.676-186.676c-37.215-37.215-37.215-98.549 0-135.765l158.392-158.392c37.215-37.215 98.549-37.215 135.765 0l186.676 186.676c37.215 37.215 37.215 98.549 0 135.765zM551.578 581.984l158.392-158.392c12.927-12.927 12.927-32.328 0-45.255l-186.676-186.676c-12.927-12.927-32.328-12.927-45.255 0l-158.392 158.392c-12.927 12.927-12.927 32.328 0 45.255l186.676 186.676c12.927 12.927 32.328 12.927 45.255 0zM544 480c0-17.673-14.327-32-32-32s-32 14.327-32 32c0 17.673 14.327 32 32 32s32-14.327 32-32zM640 384c0-17.673-14.327-32-32-32s-32 14.327-32 32c0 17.673 14.327 32 32 32s32-14.327 32-32zM448 384c0-17.673-14.327-32-32-32s-32 14.327-32 32c0 17.673 14.327 32 32 32s32-14.327 32-32zM544 288c0-17.673-14.327-32-32-32s-32 14.327-32 32c0 17.673 14.327 32 32 32s32-14.327 32-32z" />
<glyph unicode="&#xe96c;" glyph-name="bandage-sharp" d="M55.42 221.8c-14.46-14.474-23.403-34.463-23.403-56.54s8.943-42.066 23.404-56.541l181.299-181.299c14.474-14.46 34.463-23.403 56.54-23.403s42.066 8.943 56.541 23.404l150.199 150.199-294.38 294.38zM992 601.8c0 0.069 0 0.15 0 0.231 0 22.092-8.984 42.085-23.497 56.526l-182.003 182.003c-14.526 14.518-34.59 23.497-56.75 23.497s-42.224-8.979-56.75-23.497v0l-145-145.12 295.44-295.44 145.060 145.060c14.516 14.438 23.5 34.426 23.5 56.513 0 0.080 0 0.16 0 0.24v-0.012zM546.12 123.62l232 232-294.58 294.38-232-232zM585.38 406.62c5.792 5.795 13.795 9.38 22.635 9.38 17.673 0 32-14.327 32-32s-14.327-32-32-32c-8.84 0-16.843 3.585-22.635 9.38v0c-5.786 5.79-9.365 13.787-9.365 22.62s3.579 16.83 9.365 22.62v0zM489.38 502.62c5.792 5.795 13.795 9.38 22.635 9.38 17.673 0 32-14.327 32-32s-14.327-32-32-32c-8.84 0-16.843 3.585-22.635 9.38v0c-5.786 5.79-9.365 13.787-9.365 22.62s3.579 16.83 9.365 22.62v0zM489.38 310.62c5.792 5.795 13.795 9.38 22.635 9.38 17.673 0 32-14.327 32-32s-14.327-32-32-32c-8.84 0-16.843 3.585-22.635 9.38v0c-5.786 5.79-9.365 13.787-9.365 22.62s3.579 16.83 9.365 22.62v0zM438.62 406.62c5.795-5.792 9.38-13.795 9.38-22.635 0-17.673-14.327-32-32-32s-32 14.327-32 32c0 8.84 3.585 16.843 9.38 22.635v0c5.79 5.786 13.787 9.365 22.62 9.365s16.83-3.579 22.62-9.365v0z" />
<glyph unicode="&#xe96d;" glyph-name="ban-outline" d="M512 832c-247.044 0-448-200.956-448-448s200.956-448 448-448c247.044 0 448 200.956 448 448s-200.956 448-448 448zM512 768c212.456 0 384-171.544 384-384s-171.544-384-384-384c-212.456 0-384 171.544-384 384s171.544 384 384 384zM240.469 700.789l-45.258-45.258 588.32-588.32 45.258 45.258z" />
<glyph unicode="&#xe96e;" glyph-name="ban-sharp" d="M828.78 700.78c-81.224 82.005-193.852 132.779-318.339 132.779-247.424 0-448-200.576-448-448 0-124.487 50.775-237.116 132.744-318.305l0.035-0.034c81.224-82.005 193.852-132.779 318.339-132.779 247.424 0 448 200.576 448 448 0 124.487-50.775 237.116-132.744 318.305l-0.035 0.034zM864 384c0-0.102 0-0.222 0-0.342 0-80.141-26.921-153.994-72.214-213.010l0.613 0.832-492.92 492.92c58.183 44.679 132.037 71.6 212.178 71.6 0.121 0 0.241 0 0.362 0h-0.019c194.1 0 352-158 352-352zM160 384c0 0.102 0 0.222 0 0.342 0 80.141 26.921 153.994 72.214 213.010l-0.613-0.832 492.92-492.92c-58.183-44.679-132.037-71.6-212.178-71.6-0.121 0-0.241 0-0.362 0h0.019c-194 0-352 157.9-352 352z" />
<glyph unicode="&#xe96f;" glyph-name="barbell" d="M934 544c-0.58 0.020-1.261 0.032-1.945 0.032-19.993 0-37.698-9.799-48.574-24.856l-0.121-0.176c-0.732-1.040-1.928-1.711-3.28-1.711-2.206 0-3.995 1.785-4 3.99v73.301c0 41.5-32.68 76.42-74.16 77.4-0.572 0.015-1.245 0.024-1.92 0.024-41.974 0-76-34.026-76-76 0-0.001 0-0.003 0-0.004v0-164c0-2.209-1.791-4-4-4v0h-416c-2.209 0-4 1.791-4 4v0 162.58c0 41.5-32.68 76.42-74.16 77.4-0.548 0.014-1.193 0.022-1.84 0.022-41.974 0-76-34.026-76-76 0-0.001 0-0.002 0-0.002v0-74.76c-0.005-2.205-1.794-3.991-4-3.991-1.352 0-2.548 0.671-3.272 1.698l-0.008 0.013c-10.995 15.257-28.713 25.073-48.725 25.073-0.702 0-1.4-0.012-2.096-0.036l0.101 0.003c-32.6-1.020-58-28.62-58-61.24v-197.44c0-32.62 25.48-60.22 58-61.24 0.58-0.020 1.261-0.032 1.945-0.032 19.993 0 37.698 9.799 48.574 24.856l0.121 0.176c0.723 1.11 1.958 1.834 3.363 1.834 2.209 0 4-1.791 4-4 0-0.054-0.001-0.108-0.003-0.162v0.008-73.34c0-41.42 32.68-76.42 74.16-77.42 0.548-0.014 1.193-0.022 1.84-0.022 41.974 0 76 34.026 76 76 0 0.008 0 0.016 0 0.024v-0.001 164c0 2.209 1.791 4 4 4v0h416c2.209 0 4-1.791 4-4v0-162.58c0-41.5 32.68-76.42 74.16-77.4 0.548-0.014 1.193-0.022 1.84-0.022 41.974 0 76 34.026 76 76 0 0.001 0 0.002 0 0.002v0 74.76c0.005 2.205 1.794 3.991 4 3.991 1.352 0 2.548-0.671 3.272-1.698l0.008-0.013c10.995-15.257 28.713-25.073 48.725-25.073 0.702 0 1.4 0.012 2.096 0.036l-0.101-0.003c32.6 1.020 58 28.62 58 61.24v197.48c0 32.62-25.48 60.22-58 61.28z" />
<glyph unicode="&#xe970;" glyph-name="barbell-outline" d="M96 416c-17.673 0-32-14.327-32-32v0c0-17.673 14.327-32 32-32v0h832c17.673 0 32 14.327 32 32v0c0 17.673-14.327 32-32 32v0zM800 672c-34.902 0-64-29.098-64-64v-448c0-34.902 29.098-64 64-64s64 29.098 64 64v448c0 34.902-29.098 64-64 64zM224 672c-34.902 0-64-29.098-64-64v-448c0-34.902 29.098-64 64-64s64 29.098 64 64v448c0 34.902-29.098 64-64 64zM80 544c-26.038 0-48-21.962-48-48v-224c0-26.038 21.962-48 48-48s48 21.962 48 48v224c0 26.038-21.962 48-48 48zM944 544c-26.038 0-48-21.962-48-48v-224c0-26.038 21.962-48 48-48s48 21.962 48 48v224c0 26.038-21.962 48-48 48z" />
<glyph unicode="&#xe971;" glyph-name="barbell-sharp" d="M992 544h-116v128h-152v-244h-424v244h-152v-128h-116v-320h116v-128h152v244h424v-244h152v128h116v320z" />
<glyph unicode="&#xe972;" glyph-name="bar-chart" d="M960-96h-864c-35.346 0-64 28.654-64 64v0 864c0 17.673 14.327 32 32 32s32-14.327 32-32v0-864h864c17.673 0 32-14.327 32-32s-14.327-32-32-32v0zM312 32h-80c-39.765 0-72 32.235-72 72v0 304c0 39.765 32.235 72 72 72v0h80c39.765 0 72-32.235 72-72v0-304c0-39.765-32.235-72-72-72v0zM600 32h-80c-39.765 0-72 32.235-72 72v0 400c0 39.765 32.235 72 72 72v0h80c39.765 0 72-32.235 72-72v0-400c0-39.765-32.235-72-72-72v0zM887.28 32h-80c-39.765 0-72 32.235-72 72v0 528c0 39.765 32.235 72 72 72v0h80c39.765 0 72-32.235 72-72v0-528c0-39.765-32.235-72-72-72v0z" />
</font>
</defs>
</svg>
